  0
SECTION
  2
HEADER
  9
$ACADVER
  1
AC1015
  9
$ACADMAINTVER
 70
     6
  9
$DWGCODEPAGE
  3
ANSI_932
  9
$INSBASE
 10
0.0
 20
0.0
 30
0.0
  9
$EXTMIN
 10
-168.0942818922833
 20
-60.26563039335424
 30
-0.00000001
  9
$EXTMAX
 10
-55.88959279883551
 20
198.1646818538778
 30
0.00000001
  9
$LIMMIN
 10
11.57448730468749
 20
9.446796332465277
  9
$LIMMAX
 10
200.4983561197916
 20
282.012415907118
  9
$ORTHOMODE
 70
     1
  9
$REGENMODE
 70
     1
  9
$FILLMODE
 70
     1
  9
$QTEXTMODE
 70
     0
  9
$MIRRTEXT
 70
     1
  9
$LTSCALE
 40
1.0
  9
$ATTMODE
 70
     1
  9
$TEXTSIZE
 40
0.0
  9
$TRACEWID
 40
0.05
  9
$TEXTSTYLE
  7
Standard
  9
$CLAYER
  8
0
  9
$CELTYPE
  6
ByLayer
  9
$CECOLOR
 62
   256
  9
$CELTSCALE
 40
1.0
  9
$DISPSILH
 70
     0
  9
$DIMSCALE
 40
1.0
  9
$DIMASZ
 40
2.0
  9
$DIMEXO
 40
2.0
  9
$DIMDLI
 40
3.75
  9
$DIMRND
 40
0.0
  9
$DIMDLE
 40
0.0
  9
$DIMEXE
 40
0.5
  9
$DIMTP
 40
0.0
  9
$DIMTM
 40
0.0
  9
$DIMTXT
 40
2.5
  9
$DIMCEN
 40
2.0
  9
$DIMTSZ
 40
0.0
  9
$DIMTOL
 70
     0
  9
$DIMLIM
 70
     0
  9
$DIMTIH
 70
     0
  9
$DIMTOH
 70
     0
  9
$DIMSE1
 70
     0
  9
$DIMSE2
 70
     0
  9
$DIMTAD
 70
     1
  9
$DIMZIN
 70
     8
  9
$DIMBLK
  1

  9
$DIMASO
 70
     1
  9
$DIMSHO
 70
     1
  9
$DIMPOST
  1

  9
$DIMAPOST
  1

  9
$DIMALT
 70
     0
  9
$DIMALTD
 70
     3
  9
$DIMALTF
 40
0.03937007874016
  9
$DIMLFAC
 40
1.0
  9
$DIMTOFL
 70
     1
  9
$DIMTVP
 40
0.0
  9
$DIMTIX
 70
     1
  9
$DIMSOXD
 70
     1
  9
$DIMSAH
 70
     0
  9
$DIMBLK1
  1

  9
$DIMBLK2
  1

  9
$DIMSTYLE
  2
ISO-25 1／10
  9
$DIMCLRD
 70
     0
  9
$DIMCLRE
 70
     0
  9
$DIMCLRT
 70
     0
  9
$DIMTFAC
 40
1.0
  9
$DIMGAP
 40
0.75
  9
$DIMJUST
 70
     0
  9
$DIMSD1
 70
     0
  9
$DIMSD2
 70
     0
  9
$DIMTOLJ
 70
     0
  9
$DIMTZIN
 70
     8
  9
$DIMALTZ
 70
     0
  9
$DIMALTTZ
 70
     0
  9
$DIMUPT
 70
     0
  9
$DIMDEC
 70
     1
  9
$DIMTDEC
 70
     1
  9
$DIMALTU
 70
     2
  9
$DIMALTTD
 70
     3
  9
$DIMTXSTY
  7
Standard
  9
$DIMAUNIT
 70
     0
  9
$DIMADEC
 70
     1
  9
$DIMALTRND
 40
0.0
  9
$DIMAZIN
 70
     0
  9
$DIMDSEP
 70
    46
  9
$DIMATFIT
 70
     3
  9
$DIMFRAC
 70
     0
  9
$DIMLDRBLK
  1

  9
$DIMLUNIT
 70
     2
  9
$DIMLWD
 70
    -2
  9
$DIMLWE
 70
    -2
  9
$DIMTMOVE
 70
     0
  9
$LUNITS
 70
     2
  9
$LUPREC
 70
     4
  9
$SKETCHINC
 40
0.1
  9
$FILLETRAD
 40
0.0
  9
$AUNITS
 70
     0
  9
$AUPREC
 70
     0
  9
$MENU
  1
acad
  9
$ELEVATION
 40
0.0
  9
$PELEVATION
 40
0.0
  9
$THICKNESS
 40
0.0
  9
$LIMCHECK
 70
     0
  9
$CHAMFERA
 40
0.0
  9
$CHAMFERB
 40
0.0
  9
$CHAMFERC
 40
0.0
  9
$CHAMFERD
 40
0.0
  9
$SKPOLY
 70
     0
  9
$TDCREATE
 40
2460396.632474780
  9
$TDUCREATE
 40
2460396.257474780
  9
$TDUPDATE
 40
2460398.389636713
  9
$TDUUPDATE
 40
2460398.014636713
  9
$TDINDWG
 40
0.0305154051
  9
$TDUSRTIMER
 40
0.0305154051
  9
$USRTIMER
 70
     1
  9
$ANGBASE
 50
0.0
  9
$ANGDIR
 70
     0
  9
$PDMODE
 70
     0
  9
$PDSIZE
 40
0.0
  9
$PLINEWID
 40
0.0
  9
$SPLFRAME
 70
     0
  9
$SPLINETYPE
 70
     6
  9
$SPLINESEGS
 70
     8
  9
$HANDSEED
  5
1BA4
  9
$SURFTAB1
 70
     6
  9
$SURFTAB2
 70
     6
  9
$SURFTYPE
 70
     6
  9
$SURFU
 70
     6
  9
$SURFV
 70
     6
  9
$UCSBASE
  2

  9
$UCSNAME
  2

  9
$UCSORG
 10
0.0
 20
0.0
 30
0.0
  9
$UCSXDIR
 10
1.0
 20
0.0
 30
0.0
  9
$UCSYDIR
 10
0.0
 20
1.0
 30
0.0
  9
$UCSORTHOREF
  2

  9
$UCSORTHOVIEW
 70
     0
  9
$UCSORGTOP
 10
0.0
 20
0.0
 30
0.0
  9
$UCSORGBOTTOM
 10
0.0
 20
0.0
 30
0.0
  9
$UCSORGLEFT
 10
0.0
 20
0.0
 30
0.0
  9
$UCSORGRIGHT
 10
0.0
 20
0.0
 30
0.0
  9
$UCSORGFRONT
 10
0.0
 20
0.0
 30
0.0
  9
$UCSORGBACK
 10
0.0
 20
0.0
 30
0.0
  9
$PUCSBASE
  2

  9
$PUCSNAME
  2

  9
$PUCSORG
 10
0.0
 20
0.0
 30
0.0
  9
$PUCSXDIR
 10
1.0
 20
0.0
 30
0.0
  9
$PUCSYDIR
 10
0.0
 20
1.0
 30
0.0
  9
$PUCSORTHOREF
  2

  9
$PUCSORTHOVIEW
 70
     0
  9
$PUCSORGTOP
 10
0.0
 20
0.0
 30
0.0
  9
$PUCSORGBOTTOM
 10
0.0
 20
0.0
 30
0.0
  9
$PUCSORGLEFT
 10
0.0
 20
0.0
 30
0.0
  9
$PUCSORGRIGHT
 10
0.0
 20
0.0
 30
0.0
  9
$PUCSORGFRONT
 10
0.0
 20
0.0
 30
0.0
  9
$PUCSORGBACK
 10
0.0
 20
0.0
 30
0.0
  9
$USERI1
 70
     0
  9
$USERI2
 70
     0
  9
$USERI3
 70
     0
  9
$USERI4
 70
     0
  9
$USERI5
 70
     0
  9
$USERR1
 40
0.0
  9
$USERR2
 40
0.0
  9
$USERR3
 40
0.0
  9
$USERR4
 40
0.0
  9
$USERR5
 40
0.0
  9
$WORLDVIEW
 70
     1
  9
$SHADEDGE
 70
     3
  9
$SHADEDIF
 70
    70
  9
$TILEMODE
 70
     1
  9
$MAXACTVP
 70
    16
  9
$PINSBASE
 10
0.0
 20
0.0
 30
0.0
  9
$PLIMCHECK
 70
     0
  9
$PEXTMIN
 10
1.000000000000000E+20
 20
1.000000000000000E+20
 30
1.000000000000000E+20
  9
$PEXTMAX
 10
-1.000000000000000E+20
 20
-1.000000000000000E+20
 30
-1.000000000000000E+20
  9
$PLIMMIN
 10
0.0
 20
0.0
  9
$PLIMMAX
 10
12.0
 20
9.0
  9
$UNITMODE
 70
     0
  9
$VISRETAIN
 70
     0
  9
$PLINEGEN
 70
     1
  9
$PSLTSCALE
 70
     0
  9
$TREEDEPTH
 70
  3020
  9
$CMLSTYLE
  2
Standard
  9
$CMLJUST
 70
     0
  9
$CMLSCALE
 40
1.0
  9
$PROXYGRAPHICS
 70
     0
  9
$MEASUREMENT
 70
     1
  9
$CELWEIGHT
370
    13
  9
$ENDCAPS
280
     0
  9
$JOINSTYLE
280
     0
  9
$LWDISPLAY
290
     0
  9
$INSUNITS
 70
     0
  9
$HYPERLINKBASE
  1

  9
$STYLESHEET
  1

  9
$XEDIT
290
     1
  9
$CEPSNTYPE
380
     0
  9
$PSTYLEMODE
290
     1
  9
$FINGERPRINTGUID
  2

  9
$VERSIONGUID
  2
{6098CD84-F6AD-45DB-9686-FC18C49663C8}
  9
$EXTNAMES
290
     1
  9
$PSVPSCALE
 40
0.0
  9
$OLESTARTUP
290
     0
  0
ENDSEC
  0
SECTION
  2
CLASSES
  0
CLASS
  1
LWPOLYLINE
  2
AcDbPolyline
  3
AutoCAD 2000
 90
    32768
280
     0
281
     1
  0
CLASS
  1
IMAGE
  2
AcDbRasterImage
  3
ISM
 90
    32895
280
     0
281
     1
  0
CLASS
  1
OLE2FRAME
  2
AcDbOle2Frame
  3
AutoCAD 2000
 90
    32768
280
     0
281
     1
  0
CLASS
  1
HATCH
  2
AcDbHatch
  3
AutoCAD 2000
 90
    32768
280
     0
281
     1
  0
CLASS
  1
DICTIONARYVAR
  2
AcDbDictionaryVar
  3
AutoCAD 2000
 90
    32768
280
     0
281
     0
  0
CLASS
  1
RASTERVARIABLES
  2
AcDbRasterVariables
  3
ISM
 90
        0
280
     0
281
     0
  0
CLASS
  1
IMAGEDEF
  2
AcDbRasterImageDef
  3
ISM
 90
    32768
280
     0
281
     0
  0
CLASS
  1
IMAGEDEF_REACTOR
  2
AcDbRasterImageDefReactor
  3
ISM
 90
    32769
280
     0
281
     0
  0
CLASS
  1
IDBUFFER
  2
AcDbIdBuffer
  3
AutoCAD 2000
 90
    32768
280
     0
281
     0
  0
CLASS
  1
SPATIAL_FILTER
  2
AcDbSpatialFilter
  3
AutoCAD 2000
 90
    32768
280
     0
281
     0
  0
CLASS
  1
XRECORD
  2
AcDbXrecord
  3
AutoCAD 2000
 90
    32768
280
     0
281
     0
  0
CLASS
  1
SORTENTSTABLE
  2
AcDbSortentsTable
  3
AutoCAD 2000
 90
    32768
280
     0
281
     0
  0
CLASS
  1
LAYER_INDEX
  2
AcDbLayerIndex
  3
AutoCAD 2000
 90
    32768
280
     0
281
     0
  0
CLASS
  1
SPATIAL_INDEX
  2
AcDbSpatialIndex
  3
AutoCAD 2000
 90
    32768
280
     0
281
     0
  0
CLASS
  1
OBJECT_PTR
  2
CAseDLPNTableRecord
  3
"ASE-LPNTableRecord"
 90
    32769
280
     0
281
     0
  0
CLASS
  1
LAYOUT
  2
AcDbLayout
  3
AutoCAD 2000
 90
        0
280
     0
281
     0
  0
CLASS
  1
PLOTSETTINGS
  2
AcDbPlotSettings
  3
AutoCAD 2000
 90
    32768
280
     0
281
     0
  0
CLASS
  1
ACDBDICTIONARYWDFLT
  2
AcDbDictionaryWithDefault
  3
AutoCAD 2000
 90
        0
280
     0
281
     0
  0
CLASS
  1
ACDBPLACEHOLDER
  2
AcDbPlaceHolder
  3
AutoCAD 2000
 90
        0
280
     0
281
     0
  0
CLASS
  1
VBA_PROJECT
  2
AcDbVbaProject
  3
acadvba
 90
    32768
280
     0
281
     0
  0
CLASS
  1
WIPEOUT
  2
AcDbWipeout
  3
WipeOut|AutoCAD Express Tool|expresstools@autodesk.com
 90
    32895
280
     0
281
     1
  0
CLASS
  1
WIPEOUTVARIABLES
  2
AcDbWipeoutVariables
  3
WipeOut|AutoCAD Express Tool|expresstools@autodesk.com
 90
        0
280
     0
281
     0
  0
CLASS
  1
RTEXT
  2
RText
  3
RText|AutoCAD Express Tool|expresstools@autodesk.com
 90
    32768
280
     0
281
     1
  0
CLASS
  1
ARCALIGNEDTEXT
  2
AcDbArcAlignedText
  3
ATEXT|AutoCAD Express Tool|expresstools@autodesk.com
 90
    32768
280
     0
281
     1
  0
ENDSEC
  0
SECTION
  2
TABLES
  0
TABLE
  2
VPORT
  5
7
330
0
100
AcDbSymbolTable
 70
     2
  0
VPORT
  5
1BA3
330
7
100
AcDbSymbolTableRecord
100
AcDbViewportTableRecord
  2
*Active
 70
     0
 10
0.0
 20
0.0
 11
1.0
 21
1.0
 12
-81.13979473833916
 22
74.80839901873287
 13
0.0
 23
0.0
 14
1.0
 24
1.0
 15
0.0
 25
0.0
 16
0.0
 26
0.0
 36
1.0
 17
0.0
 27
0.0
 37
0.0
 40
339.9564964073088
 41
2.165492957746478
 42
50.0
 43
0.0
 44
0.0
 50
0.0
 51
0.0
 71
     0
 72
   100
 73
     1
 74
     1
 75
     0
 76
     0
 77
     0
 78
     0
281
     0
 65
     0
110
0.0
120
0.0
130
0.0
111
1.0
121
0.0
131
0.0
112
0.0
122
1.0
132
0.0
 79
     0
146
0.0
  0
ENDTAB
  0
TABLE
  2
LTYPE
  5
4
330
0
100
AcDbSymbolTable
 70
     1
  0
LTYPE
  5
11
330
4
100
AcDbSymbolTableRecord
100
AcDbLinetypeTableRecord
  2
ByBlock
 70
     0
  3

 72
    65
 73
     0
 40
0.0
  0
LTYPE
  5
12
330
4
100
AcDbSymbolTableRecord
100
AcDbLinetypeTableRecord
  2
ByLayer
 70
     0
  3

 72
    65
 73
     0
 40
0.0
  0
LTYPE
  5
13
330
4
100
AcDbSymbolTableRecord
100
AcDbLinetypeTableRecord
  2
Continuous
 70
     0
  3
Solid line
 72
    65
 73
     0
 40
0.0
  0
ENDTAB
  0
TABLE
  2
LAYER
  5
2
102
{ACAD_XDICTIONARY
360
1171
102
}
330
0
100
AcDbSymbolTable
 70
     4
  0
LAYER
  5
14
330
2
100
AcDbSymbolTableRecord
100
AcDbLayerTableRecord
  2
0
 70
     0
 62
     7
  6
Continuous
370
    -3
390
1D
  0
LAYER
  5
13F1
330
2
100
AcDbSymbolTableRecord
100
AcDbLayerTableRecord
  2
Defpoints
 70
     0
 62
     2
  6
Continuous
290
     0
370
    -3
390
1D
  0
LAYER
  5
13F2
330
2
100
AcDbSymbolTableRecord
100
AcDbLayerTableRecord
  2
寸法
 70
     0
 62
     6
  6
Continuous
370
    -3
390
1D
  0
LAYER
  5
13F3
330
2
100
AcDbSymbolTableRecord
100
AcDbLayerTableRecord
  2
文字
 70
     0
 62
    30
  6
Continuous
370
    -3
390
1D
  0
ENDTAB
  0
TABLE
  2
STYLE
  5
3
330
0
100
AcDbSymbolTable
 70
     1
  0
STYLE
  5
17
330
3
100
AcDbSymbolTableRecord
100
AcDbTextStyleTableRecord
  2
Standard
 70
     0
 40
0.0
 41
1.0
 50
0.0
 71
     0
 42
0.0
  3
txt
  4

  0
ENDTAB
  0
TABLE
  2
VIEW
  5
5
330
0
100
AcDbSymbolTable
 70
     0
  0
ENDTAB
  0
TABLE
  2
UCS
  5
6
330
0
100
AcDbSymbolTable
 70
     0
  0
ENDTAB
  0
TABLE
  2
APPID
  5
8
330
0
100
AcDbSymbolTable
 70
     1
  0
APPID
  5
16
330
8
100
AcDbSymbolTableRecord
100
AcDbRegAppTableRecord
  2
ACAD
 70
     0
  0
ENDTAB
  0
TABLE
  2
DIMSTYLE
  5
9
330
0
100
AcDbSymbolTable
 70
     2
100
AcDbDimStyleTable
 71
     1
340
13F4
  0
DIMSTYLE
105
18
330
9
100
AcDbSymbolTableRecord
100
AcDbDimStyleTableRecord
  2
Standard
 70
     0
289
     0
340
17
  0
DIMSTYLE
105
13F4
102
{ACAD_REACTORS
330
18BC
330
19BA
330
1A3E
330
19F4
330
1A3B
330
1B00
102
}
330
9
100
AcDbSymbolTableRecord
100
AcDbDimStyleTableRecord
  2
ISO-25 1／10
 70
     0
 41
2.0
 42
2.0
 43
3.75
 44
0.5
 73
     0
 74
     0
 77
     1
 78
     8
140
2.5
141
2.0
143
0.03937007874016
147
0.75
171
     3
172
     1
174
     1
175
     1
179
     1
271
     1
272
     1
274
     3
283
     0
284
     8
340
17
  0
ENDTAB
  0
TABLE
  2
BLOCK_RECORD
  5
1
330
0
100
AcDbSymbolTable
 70
     6
  0
BLOCK_RECORD
  5
A
330
1
100
AcDbSymbolTableRecord
100
AcDbBlockTableRecord
  2
*MODEL_SPACE
340
20
  0
BLOCK_RECORD
  5
B
330
1
100
AcDbSymbolTableRecord
100
AcDbBlockTableRecord
  2
*PAPER_SPACE
340
21
  0
BLOCK_RECORD
  5
18BE
330
1
100
AcDbSymbolTableRecord
100
AcDbBlockTableRecord
  2
*D0
340
0
  0
BLOCK_RECORD
  5
19BB
330
1
100
AcDbSymbolTableRecord
100
AcDbBlockTableRecord
  2
*D1
340
0
  0
BLOCK_RECORD
  5
1A57
330
1
100
AcDbSymbolTableRecord
100
AcDbBlockTableRecord
  2
*D2
340
0
  0
BLOCK_RECORD
  5
1A63
330
1
100
AcDbSymbolTableRecord
100
AcDbBlockTableRecord
  2
*D3
340
0
  0
BLOCK_RECORD
  5
1A6F
330
1
100
AcDbSymbolTableRecord
100
AcDbBlockTableRecord
  2
*D4
340
0
  0
BLOCK_RECORD
  5
1B01
330
1
100
AcDbSymbolTableRecord
100
AcDbBlockTableRecord
  2
*D5
340
0
  0
ENDTAB
  0
ENDSEC
  0
SECTION
  2
BLOCKS
  0
BLOCK
  5
D
330
A
100
AcDbEntity
  8
0
100
AcDbBlockBegin
  2
*MODEL_SPACE
 70
     0
 10
0.0
 20
0.0
 30
0.0
  3
*MODEL_SPACE
  1

  0
ENDBLK
  5
E
330
A
100
AcDbEntity
  8
0
100
AcDbBlockEnd
  0
BLOCK
  5
F
330
B
100
AcDbEntity
 67
     1
  8
0
100
AcDbBlockBegin
  2
*PAPER_SPACE
 70
     0
 10
0.0
 20
0.0
 30
0.0
  3
*PAPER_SPACE
  1

  0
ENDBLK
  5
10
330
B
100
AcDbEntity
 67
     1
  8
0
100
AcDbBlockEnd
  0
BLOCK
  5
18C8
330
18BE
100
AcDbEntity
  8
0
370
    13
100
AcDbBlockBegin
  2
*D0
 70
     1
 10
0.0
 20
0.0
 30
0.0
  3
*D0
  1

  0
LINE
  5
1B68
330
18BE
100
AcDbEntity
  8
寸法
 62
     0
370
    -2
100
AcDbLine
 10
-88.89788936121954
 20
191.0551033070202
 30
0.0
 11
-88.89788936121954
 21
194.7896818538778
 31
0.0
  0
LINE
  5
1B69
330
18BE
100
AcDbEntity
  8
寸法
 62
     0
370
    -2
100
AcDbLine
 10
-105.3978893612195
 20
191.2896817824493
 30
0.0
 11
-105.3978893612195
 21
194.7896818538778
 31
0.0
  0
LINE
  5
1B6A
330
18BE
100
AcDbEntity
  8
寸法
 62
     0
370
    -2
100
AcDbLine
 10
-90.89788936121953
 20
194.2896818538778
 30
0.0
 11
-103.3978893612195
 21
194.2896818538778
 31
0.0
  0
SOLID
  5
1B6B
330
18BE
100
AcDbEntity
  8
寸法
 62
     0
370
    13
100
AcDbTrace
 10
-90.89788936121953
 20
194.6230151872111
 30
0.0
 11
-90.89788936121953
 21
193.9563485205445
 31
0.0
 12
-88.89788936121954
 22
194.2896818538778
 32
0.0
 13
-88.89788936121954
 23
194.2896818538778
 33
0.0
  0
SOLID
  5
1B6C
330
18BE
100
AcDbEntity
  8
寸法
 62
     0
370
    13
100
AcDbTrace
 10
-103.3978893612195
 20
194.6230151872111
 30
0.0
 11
-103.3978893612195
 21
193.9563485205445
 31
0.0
 12
-105.3978893612195
 22
194.2896818538778
 32
0.0
 13
-105.3978893612195
 23
194.2896818538778
 33
0.0
  0
MTEXT
  5
1B6D
330
18BE
100
AcDbEntity
  8
寸法
 62
     0
370
    13
100
AcDbMText
 10
-97.14788936121955
 20
196.2896818538778
 30
0.0
 40
2.5
 41
0.0
 71
     5
 72
     1
  1
{\fMS UI Gothic|b0|i0|c128|p17;\U+2260}16.5
 73
     1
 44
1.0
  0
POINT
  5
1B6E
330
18BE
100
AcDbEntity
  8
Defpoints
 62
     0
370
    13
100
AcDbPoint
 10
-88.89788936121954
 20
189.0551033070202
 30
0.0
  0
POINT
  5
1B6F
330
18BE
100
AcDbEntity
  8
Defpoints
 62
     0
370
    13
100
AcDbPoint
 10
-105.3978893612195
 20
189.2896817824493
 30
0.0
  0
POINT
  5
1B70
330
18BE
100
AcDbEntity
  8
Defpoints
 62
     0
370
    13
100
AcDbPoint
 10
-105.3978893612195
 20
194.2896818538778
 30
0.0
  0
ENDBLK
  5
18C9
330
18BE
100
AcDbEntity
  8
0
370
    13
100
AcDbBlockEnd
  0
BLOCK
  5
19C5
330
19BB
100
AcDbEntity
  8
0
370
    13
100
AcDbBlockBegin
  2
*D1
 70
     1
 10
0.0
 20
0.0
 30
0.0
  3
*D1
  1

  0
LINE
  5
1B71
330
19BB
100
AcDbEntity
  8
寸法
 62
     0
370
    -2
100
AcDbLine
 10
-122.4080861280442
 20
130.7352953041745
 30
0.0
 11
-134.8877177866658
 21
130.7352953041745
 31
0.0
  0
LINE
  5
1B72
330
19BB
100
AcDbEntity
  8
寸法
 62
     0
370
    -2
100
AcDbLine
 10
-130.8008536782951
 20
25.73529515515482
 30
0.0
 11
-134.8877177866659
 21
25.73529515515482
 31
0.0
  0
LINE
  5
1B73
330
19BB
100
AcDbEntity
  8
寸法
 62
     0
370
    -2
100
AcDbLine
 10
-134.3877177866658
 20
128.7352953041745
 30
0.0
 11
-134.3877177866659
 21
27.73529515515482
 31
0.0
  0
SOLID
  5
1B74
330
19BB
100
AcDbEntity
  8
寸法
 62
     0
370
    13
100
AcDbTrace
 10
-134.7210511199992
 20
128.7352953041745
 30
0.0
 11
-134.0543844533325
 21
128.7352953041745
 31
0.0
 12
-134.3877177866658
 22
130.7352953041745
 32
0.0
 13
-134.3877177866658
 23
130.7352953041745
 33
0.0
  0
SOLID
  5
1B75
330
19BB
100
AcDbEntity
  8
寸法
 62
     0
370
    13
100
AcDbTrace
 10
-134.7210511199992
 20
27.73529515515482
 30
0.0
 11
-134.0543844533325
 21
27.73529515515482
 31
0.0
 12
-134.3877177866659
 22
25.73529515515482
 32
0.0
 13
-134.3877177866659
 23
25.73529515515482
 33
0.0
  0
MTEXT
  5
1B76
330
19BB
100
AcDbEntity
  8
寸法
 62
     0
370
    13
100
AcDbMText
 10
-136.3877177866659
 20
78.23529522966468
 30
0.0
 40
2.5
 41
0.0
 71
     5
 72
     1
  1
105
 11
0.0000000000000001
 21
1.0
 31
0.0
 73
     1
 44
1.0
  0
POINT
  5
1B77
330
19BB
100
AcDbEntity
  8
Defpoints
 62
     0
370
    13
100
AcDbPoint
 10
-120.4080861280442
 20
130.7352953041745
 30
0.0
  0
POINT
  5
1B78
330
19BB
100
AcDbEntity
  8
Defpoints
 62
     0
370
    13
100
AcDbPoint
 10
-128.8008536782951
 20
25.73529515515482
 30
0.0
  0
POINT
  5
1B79
330
19BB
100
AcDbEntity
  8
Defpoints
 62
     0
370
    13
100
AcDbPoint
 10
-134.3877177866659
 20
25.73529515515482
 30
0.0
  0
ENDBLK
  5
19C6
330
19BB
100
AcDbEntity
  8
0
370
    13
100
AcDbBlockEnd
  0
BLOCK
  5
1A61
330
1A57
100
AcDbEntity
  8
0
370
    13
100
AcDbBlockBegin
  2
*D2
 70
     1
 10
0.0
 20
0.0
 30
0.0
  3
*D2
  1

  0
LINE
  5
1B7A
330
1A57
100
AcDbEntity
  8
寸法
 62
     0
370
    -2
100
AcDbLine
 10
-109.4912495243404
 20
34.33343780509718
 30
0.0
 11
-109.4912495243404
 21
15.23529535046731
 31
0.0
  0
LINE
  5
1B7B
330
1A57
100
AcDbEntity
  8
寸法
 62
     0
370
    -2
100
AcDbLine
 10
-84.49124952434049
 20
34.28835522449557
 30
0.0
 11
-84.49124952434049
 21
15.23529535046731
 31
0.0
  0
LINE
  5
1B7C
330
1A57
100
AcDbEntity
  8
寸法
 62
     0
370
    -2
100
AcDbLine
 10
-107.4912495243404
 20
15.73529535046731
 30
0.0
 11
-86.49124952434048
 21
15.73529535046731
 31
0.0
  0
SOLID
  5
1B7D
330
1A57
100
AcDbEntity
  8
寸法
 62
     0
370
    13
100
AcDbTrace
 10
-107.4912495243404
 20
16.06862868380064
 30
0.0
 11
-107.4912495243404
 21
15.40196201713397
 31
0.0
 12
-109.4912495243404
 22
15.73529535046731
 32
0.0
 13
-109.4912495243404
 23
15.73529535046731
 33
0.0
  0
SOLID
  5
1B7E
330
1A57
100
AcDbEntity
  8
寸法
 62
     0
370
    13
100
AcDbTrace
 10
-86.49124952434048
 20
16.06862868380064
 30
0.0
 11
-86.49124952434048
 21
15.40196201713397
 31
0.0
 12
-84.49124952434049
 22
15.73529535046731
 32
0.0
 13
-84.49124952434049
 23
15.73529535046731
 33
0.0
  0
MTEXT
  5
1B7F
330
1A57
100
AcDbEntity
  8
寸法
 62
     0
370
    13
100
AcDbMText
 10
-96.99124952434049
 20
17.73529535046731
 30
0.0
 40
2.5
 41
0.0
 71
     5
 72
     1
  1
%%c25
 73
     1
 44
1.0
  0
POINT
  5
1B80
330
1A57
100
AcDbEntity
  8
Defpoints
 62
     0
370
    13
100
AcDbPoint
 10
-109.4912495243404
 20
36.33343780509717
 30
0.0
  0
POINT
  5
1B81
330
1A57
100
AcDbEntity
  8
Defpoints
 62
     0
370
    13
100
AcDbPoint
 10
-84.49124952434049
 20
36.28835522449557
 30
0.0
  0
POINT
  5
1B82
330
1A57
100
AcDbEntity
  8
Defpoints
 62
     0
370
    13
100
AcDbPoint
 10
-84.49124952434049
 20
15.73529535046731
 30
0.0
  0
ENDBLK
  5
1A62
330
1A57
100
AcDbEntity
  8
0
370
    13
100
AcDbBlockEnd
  0
BLOCK
  5
1A6D
330
1A63
100
AcDbEntity
  8
0
370
    13
100
AcDbBlockBegin
  2
*D3
 70
     1
 10
0.0
 20
0.0
 30
0.0
  3
*D3
  1

  0
LINE
  5
1B83
330
1A63
100
AcDbEntity
  8
寸法
 62
     0
370
    -2
100
AcDbLine
 10
-129.3889901283241
 20
24.22307373032785
 30
0.0
 11
-129.3889901283241
 21
10.23529544812355
 31
0.0
  0
LINE
  5
1B84
330
1A63
100
AcDbEntity
  8
寸法
 62
     0
370
    -2
100
AcDbLine
 10
-61.38832045717722
 20
24.22307373032785
 30
0.0
 11
-61.38832045717722
 21
10.23529544812355
 31
0.0
  0
LINE
  5
1B85
330
1A63
100
AcDbEntity
  8
寸法
 62
     0
370
    -2
100
AcDbLine
 10
-127.3889901283242
 20
10.73529544812355
 30
0.0
 11
-63.38832045717722
 21
10.73529544812355
 31
0.0
  0
SOLID
  5
1B86
330
1A63
100
AcDbEntity
  8
寸法
 62
     0
370
    13
100
AcDbTrace
 10
-127.3889901283242
 20
11.06862878145688
 30
0.0
 11
-127.3889901283242
 21
10.40196211479021
 31
0.0
 12
-129.3889901283241
 22
10.73529544812355
 32
0.0
 13
-129.3889901283241
 23
10.73529544812355
 33
0.0
  0
SOLID
  5
1B87
330
1A63
100
AcDbEntity
  8
寸法
 62
     0
370
    13
100
AcDbTrace
 10
-63.38832045717722
 20
11.06862878145688
 30
0.0
 11
-63.38832045717722
 21
10.40196211479021
 31
0.0
 12
-61.38832045717722
 22
10.73529544812355
 32
0.0
 13
-61.38832045717722
 23
10.73529544812355
 33
0.0
  0
MTEXT
  5
1B88
330
1A63
100
AcDbEntity
  8
寸法
 62
     0
370
    13
100
AcDbMText
 10
-95.38865529275071
 20
12.73529544812355
 30
0.0
 40
2.5
 41
0.0
 71
     5
 72
     1
  1
68
 73
     1
 44
1.0
  0
POINT
  5
1B89
330
1A63
100
AcDbEntity
  8
Defpoints
 62
     0
370
    13
100
AcDbPoint
 10
-129.3889901283241
 20
26.22307373032784
 30
0.0
  0
POINT
  5
1B8A
330
1A63
100
AcDbEntity
  8
Defpoints
 62
     0
370
    13
100
AcDbPoint
 10
-61.38832045717722
 20
26.22307373032785
 30
0.0
  0
POINT
  5
1B8B
330
1A63
100
AcDbEntity
  8
Defpoints
 62
     0
370
    13
100
AcDbPoint
 10
-61.38832045717722
 20
10.73529544812355
 30
0.0
  0
ENDBLK
  5
1A6E
330
1A63
100
AcDbEntity
  8
0
370
    13
100
AcDbBlockEnd
  0
BLOCK
  5
1A79
330
1A6F
100
AcDbEntity
  8
0
370
    13
100
AcDbBlockBegin
  2
*D4
 70
     1
 10
0.0
 20
0.0
 30
0.0
  3
*D4
  1

  0
LINE
  5
1B8C
330
1A6F
100
AcDbEntity
  8
寸法
 62
     0
370
    -2
100
AcDbLine
 10
-102.4912495243404
 20
24.73463851553377
 30
0.0
 11
-102.4912495243404
 21
20.23529525281105
 31
0.0
  0
LINE
  5
1B8D
330
1A6F
100
AcDbEntity
  8
寸法
 62
     0
370
    -2
100
AcDbLine
 10
-91.49124952434048
 20
24.73514413970282
 30
0.0
 11
-91.49124952434048
 21
20.23529525281105
 31
0.0
  0
LINE
  5
1B8E
330
1A6F
100
AcDbEntity
  8
寸法
 62
     0
370
    -2
100
AcDbLine
 10
-100.4912495243404
 20
20.73529525281105
 30
0.0
 11
-93.49124952434049
 21
20.73529525281105
 31
0.0
  0
SOLID
  5
1B8F
330
1A6F
100
AcDbEntity
  8
寸法
 62
     0
370
    13
100
AcDbTrace
 10
-100.4912495243404
 20
21.06862858614439
 30
0.0
 11
-100.4912495243404
 21
20.40196191947772
 31
0.0
 12
-102.4912495243404
 22
20.73529525281105
 32
0.0
 13
-102.4912495243404
 23
20.73529525281105
 33
0.0
  0
SOLID
  5
1B90
330
1A6F
100
AcDbEntity
  8
寸法
 62
     0
370
    13
100
AcDbTrace
 10
-93.49124952434049
 20
21.06862858614439
 30
0.0
 11
-93.49124952434049
 21
20.40196191947772
 31
0.0
 12
-91.49124952434048
 22
20.73529525281105
 32
0.0
 13
-91.49124952434048
 23
20.73529525281105
 33
0.0
  0
MTEXT
  5
1B91
330
1A6F
100
AcDbEntity
  8
寸法
 62
     0
370
    13
100
AcDbMText
 10
-96.99124952434049
 20
22.73529525281105
 30
0.0
 40
2.5
 41
0.0
 71
     5
 72
     1
  1
%%c11
 73
     1
 44
1.0
  0
POINT
  5
1B92
330
1A6F
100
AcDbEntity
  8
Defpoints
 62
     0
370
    13
100
AcDbPoint
 10
-102.4912495243404
 20
26.73463851553377
 30
0.0
  0
POINT
  5
1B93
330
1A6F
100
AcDbEntity
  8
Defpoints
 62
     0
370
    13
100
AcDbPoint
 10
-91.49124952434048
 20
26.73514413970282
 30
0.0
  0
POINT
  5
1B94
330
1A6F
100
AcDbEntity
  8
Defpoints
 62
     0
370
    13
100
AcDbPoint
 10
-91.49124952434048
 20
20.73529525281105
 30
0.0
  0
ENDBLK
  5
1A7A
330
1A6F
100
AcDbEntity
  8
0
370
    13
100
AcDbBlockEnd
  0
BLOCK
  5
1B0B
330
1B01
100
AcDbEntity
  8
0
370
    13
100
AcDbBlockBegin
  2
*D5
 70
     1
 10
0.0
 20
0.0
 30
0.0
  3
*D5
  1

  0
LINE
  5
1B95
330
1B01
100
AcDbEntity
  8
寸法
 62
     0
370
    -2
100
AcDbLine
 10
-82.85648182931344
 20
39.33543315613629
 30
0.0
 11
-55.88959279883551
 21
39.33543315613628
 31
0.0
  0
LINE
  5
1B96
330
1B01
100
AcDbEntity
  8
寸法
 62
     0
370
    -2
100
AcDbLine
 10
-59.97645690720623
 20
25.73529515515482
 30
0.0
 11
-55.88959279883551
 21
25.73529515515481
 31
0.0
  0
LINE
  5
1B97
330
1B01
100
AcDbEntity
  8
寸法
 62
     0
370
    -2
100
AcDbLine
 10
-56.3895927988355
 20
37.33543315613628
 30
0.0
 11
-56.3895927988355
 21
27.73529515515482
 31
0.0
  0
SOLID
  5
1B98
330
1B01
100
AcDbEntity
  8
寸法
 62
     0
370
    13
100
AcDbTrace
 10
-56.72292613216884
 20
37.33543315613628
 30
0.0
 11
-56.05625946550217
 21
37.33543315613628
 31
0.0
 12
-56.3895927988355
 22
39.33543315613628
 32
0.0
 13
-56.3895927988355
 23
39.33543315613628
 33
0.0
  0
SOLID
  5
1B99
330
1B01
100
AcDbEntity
  8
寸法
 62
     0
370
    13
100
AcDbTrace
 10
-56.72292613216884
 20
27.73529515515482
 30
0.0
 11
-56.05625946550217
 21
27.73529515515482
 31
0.0
 12
-56.3895927988355
 22
25.73529515515482
 32
0.0
 13
-56.3895927988355
 23
25.73529515515482
 33
0.0
  0
MTEXT
  5
1B9A
330
1B01
100
AcDbEntity
  8
寸法
 62
     0
370
    13
100
AcDbMText
 10
-58.38959279883551
 20
32.53536415564554
 30
0.0
 40
2.5
 41
0.0
 71
     5
 72
     1
  1
13.6
 11
0.0000000000000001
 21
1.0
 31
0.0
 73
     1
 44
1.0
  0
POINT
  5
1B9B
330
1B01
100
AcDbEntity
  8
Defpoints
 62
     0
370
    13
100
AcDbPoint
 10
-84.85648182931344
 20
39.33543315613629
 30
0.0
  0
POINT
  5
1B9C
330
1B01
100
AcDbEntity
  8
Defpoints
 62
     0
370
    13
100
AcDbPoint
 10
-61.97645690720623
 20
25.73529515515482
 30
0.0
  0
POINT
  5
1B9D
330
1B01
100
AcDbEntity
  8
Defpoints
 62
     0
370
    13
100
AcDbPoint
 10
-56.3895927988355
 20
25.73529515515482
 30
0.0
  0
ENDBLK
  5
1B0C
330
1B01
100
AcDbEntity
  8
0
370
    13
100
AcDbBlockEnd
  0
ENDSEC
  0
SECTION
  2
ENTITIES
  0
LINE
  5
2AA
102
{ACAD_REACTORS
330
17EF
102
}
330
A
100
AcDbEntity
  8
0
370
    13
100
AcDbLine
 10
-96.57906263917812
 20
39.24556688249085
 30
0.0
 11
-96.84994847771491
 21
38.9742557914603
 31
0.0
  0
SPLINE
  5
2A9
102
{ACAD_REACTORS
330
17EF
102
}
330
A
100
AcDbEntity
  8
0
370
    13
100
AcDbSpline
210
0.0
220
0.0
230
1.0
 70
     8
 71
     3
 72
     8
 73
     4
 74
     0
 42
0.0000000001
 43
0.0000000001
 40
0.0
 40
0.0
 40
0.0
 40
0.0
 40
1.0
 40
1.0
 40
1.0
 40
1.0
 10
-96.36728689727656
 20
39.33316889620918
 30
0.0
 10
-96.44553335613174
 20
39.33316889620918
 30
0.0
 10
-96.52335456249318
 20
39.30084970668204
 30
0.0
 10
-96.57906263917812
 20
39.24556688249085
 30
0.0
  0
LINE
  5
2A8
102
{ACAD_REACTORS
330
17EF
102
}
330
A
100
AcDbEntity
  8
0
370
    13
100
AcDbLine
 10
-84.95223420678611
 20
39.33316889620917
 30
0.0
 11
-96.36728689727656
 21
39.33316889620917
 31
0.0
  0
SPLINE
  5
2A7
102
{ACAD_REACTORS
330
17EF
102
}
330
A
100
AcDbEntity
  8
0
370
    13
100
AcDbSpline
210
0.0
220
0.0
230
1.0
 70
     8
 71
     3
 72
     8
 73
     4
 74
     0
 42
0.0000000001
 43
0.0000000001
 40
0.0
 40
0.0
 40
0.0
 40
0.0
 40
1.0
 40
1.0
 40
1.0
 40
1.0
 10
-84.95223420678609
 20
39.33316889620918
 30
0.0
 10
-83.94438579653158
 20
39.33316889620918
 30
0.0
 10
-83.09345555648121
 20
40.08331429523408
 30
0.0
 10
-82.96715556582906
 20
41.08265765561303
 30
0.0
  0
LINE
  5
2A6
102
{ACAD_REACTORS
330
17EF
102
}
330
A
100
AcDbEntity
  8
0
370
    13
100
AcDbLine
 10
-81.46856577775443
 20
52.98462445147961
 30
0.0
 11
-82.96715556582908
 21
41.08265765561304
 31
0.0
  0
LINE
  5
2A4
102
{ACAD_REACTORS
330
17EF
102
}
330
A
100
AcDbEntity
  8
0
370
    13
100
AcDbLine
 10
-80.84472036938166
 20
57.94476953890949
 30
0.0
 11
-81.21936781640034
 21
54.96970309243664
 31
0.0
  0
LINE
  5
2A2
102
{ACAD_REACTORS
330
17EF
102
}
330
A
100
AcDbEntity
  8
0
370
    13
100
AcDbLine
 10
-80.2195992035276
 20
62.90576513132695
 30
0.0
 11
-80.59382139805247
 21
59.92984817986652
 31
0.0
  0
LINE
  5
2A0
102
{ACAD_REACTORS
330
17EF
102
}
330
A
100
AcDbEntity
  8
0
370
    13
100
AcDbLine
 10
-79.59405278517976
 20
67.86505971376929
 30
0.0
 11
-79.97040124217352
 21
64.88914276230886
 31
0.0
  0
LINE
  5
29E
102
{ACAD_REACTORS
330
17EF
102
}
330
A
100
AcDbEntity
  8
0
370
    13
100
AcDbLine
 10
-78.97063262930076
 20
72.82520480119917
 30
0.0
 11
-79.34528007631945
 21
69.84928784973874
 31
0.0
  0
LINE
  5
29C
102
{ACAD_REACTORS
330
17EF
102
}
330
A
100
AcDbEntity
  8
0
370
    13
100
AcDbLine
 10
-78.34508621095293
 20
77.78534988862907
 30
0.0
 11
-78.72058416295914
 21
74.80943293716862
 31
0.0
  0
LINE
  5
29A
102
{ACAD_REACTORS
330
17EF
102
}
330
A
100
AcDbEntity
  8
0
370
    13
100
AcDbLine
 10
-77.72166605507395
 20
82.74549497605894
 30
0.0
 11
-78.09546299710508
 21
79.76957802459853
 31
0.0
  0
LINE
  5
298
102
{ACAD_REACTORS
330
17EF
102
}
330
A
100
AcDbEntity
  8
0
370
    13
100
AcDbLine
 10
-77.09654488921987
 20
87.70478955850128
 30
0.0
 11
-77.47161758873232
 21
84.72887260704087
 31
0.0
  0
LINE
  5
296
102
{ACAD_REACTORS
330
17EF
102
}
330
A
100
AcDbEntity
  8
0
370
    13
100
AcDbLine
 10
-76.47099847087203
 20
92.66578515091874
 30
0.0
 11
-76.84649642287824
 21
89.68901769447075
 31
0.0
  0
LINE
  5
294
102
{ACAD_REACTORS
330
17EF
102
}
330
A
100
AcDbEntity
  8
0
370
    13
100
AcDbLine
 10
-75.8467278100055
 20
97.62593023834863
 30
0.0
 11
-76.2209500045304
 21
94.65001328688819
 31
0.0
  0
LINE
  5
292
102
{ACAD_REACTORS
330
17EF
102
}
330
A
100
AcDbEntity
  8
0
370
    13
100
AcDbLine
 10
-74.61944911296139
 20
107.3625113358962
 30
0.0
 11
-75.59752984865143
 21
99.60930786933055
 31
0.0
  0
SPLINE
  5
291
102
{ACAD_REACTORS
330
17EF
102
}
330
A
100
AcDbEntity
  8
0
370
    13
100
AcDbSpline
210
0.0
220
0.0
230
1.0
 70
     8
 71
     3
 72
     8
 73
     4
 74
     0
 42
0.0000000001
 43
0.0000000001
 40
0.0
 40
0.0
 40
0.0
 40
0.0
 40
1.0
 40
1.0
 40
1.0
 40
1.0
 10
-73.16168356428942
 20
109.0414081813328
 30
0.0
 10
-73.94287239536016
 20
108.8287819344436
 30
0.0
 10
-74.51866427193595
 20
108.1662385491371
 30
0.0
 10
-74.61944911296139
 20
107.3625113358961
 30
0.0
  0
LINE
  5
290
102
{ACAD_REACTORS
330
17EF
102
}
330
A
100
AcDbEntity
  8
0
370
    13
100
AcDbLine
 10
-71.24464532233694
 20
109.5653192536676
 30
0.0
 11
-73.16168356428943
 21
109.0414081813328
 31
0.0
  0
SPLINE
  5
28F
102
{ACAD_REACTORS
330
17EF
102
}
330
A
100
AcDbEntity
  8
0
370
    13
100
AcDbSpline
210
0.0
220
0.0
230
1.0
 70
     8
 71
     3
 72
     8
 73
     4
 74
     0
 42
0.0000000001
 43
0.0000000001
 40
0.0
 40
0.0
 40
0.0
 40
0.0
 40
1.0
 40
1.0
 40
1.0
 40
1.0
 10
-71.24464532233694
 20
109.5653192536676
 30
0.0
 10
-70.31887064338161
 20
109.8179192349719
 30
0.0
 10
-69.70310503239064
 20
110.7084543621801
 30
0.0
 10
-69.77624846132052
 20
111.6644219681937
 30
0.0
  0
LINE
  5
28E
102
{ACAD_REACTORS
330
17EF
102
}
330
A
100
AcDbEntity
  8
0
370
    13
100
AcDbLine
 10
-70.41200093951906
 20
119.9066637926292
 30
0.0
 11
-69.77624846132053
 21
111.6644219681937
 31
0.0
  0
SPLINE
  5
28D
102
{ACAD_REACTORS
330
17EF
102
}
330
A
100
AcDbEntity
  8
0
370
    13
100
AcDbSpline
210
0.0
220
0.0
230
1.0
 70
     8
 71
     3
 72
     8
 73
     4
 74
     0
 42
0.0000000001
 43
0.0000000001
 40
0.0
 40
0.0
 40
0.0
 40
0.0
 40
1.0
 40
1.0
 40
1.0
 40
1.0
 10
-70.41200093951906
 20
119.9066637926292
 30
0.0
 10
-70.50087871071872
 20
121.0531445158555
 30
0.0
 10
-71.45642106423851
 20
121.9376697029143
 30
0.0
 10
-72.60502804993365
 20
121.9376697029143
 30
0.0
  0
LINE
  5
28C
102
{ACAD_REACTORS
330
17EF
102
}
330
A
100
AcDbEntity
  8
0
370
    13
100
AcDbLine
 10
-75.32494300013955
 20
121.9376697029143
 30
0.0
 11
-72.60502804993366
 21
121.9376697029143
 31
0.0
  0
SPLINE
  5
28B
102
{ACAD_REACTORS
330
17EF
102
}
330
A
100
AcDbEntity
  8
0
370
    13
100
AcDbSpline
210
0.0
220
0.0
230
1.0
 70
     8
 71
     3
 72
     8
 73
     4
 74
     0
 42
0.0000000001
 43
0.0000000001
 40
0.0
 40
0.0
 40
0.0
 40
0.0
 40
1.0
 40
1.0
 40
1.0
 40
1.0
 10
-76.82480854569556
 20
123.4371099959765
 30
0.0
 10
-76.82480854569556
 20
122.609568643084
 30
0.0
 10
-76.15418536300719
 20
121.9376697029143
 30
0.0
 10
-75.32494300013955
 20
121.9376697029143
 30
0.0
  0
LINE
  5
28A
102
{ACAD_REACTORS
330
17EF
102
}
330
A
100
AcDbEntity
  8
0
370
    13
100
AcDbLine
 10
-76.82480854569556
 20
129.7359499338205
 30
0.0
 11
-76.82480854569556
 21
123.4371099959765
 31
0.0
  0
SPLINE
  5
289
102
{ACAD_REACTORS
330
17EF
102
}
330
A
100
AcDbEntity
  8
0
370
    13
100
AcDbSpline
210
0.0
220
0.0
230
1.0
 70
     8
 71
     3
 72
     8
 73
     4
 74
     0
 42
0.0000000001
 43
0.0000000001
 40
0.0
 40
0.0
 40
0.0
 40
0.0
 40
1.0
 40
1.0
 40
1.0
 40
1.0
 10
-75.82503993282283
 20
130.7369943041745
 30
0.0
 10
-76.3778681747346
 20
130.7369943041745
 30
0.0
 10
-76.82480854569556
 20
130.2887781757322
 30
0.0
 10
-76.82480854569556
 20
129.7359499338205
 30
0.0
  0
SPLINE
  5
287
102
{ACAD_REACTORS
330
17EF
102
}
330
A
100
AcDbEntity
  8
0
370
    13
100
AcDbSpline
210
0.0
220
0.0
230
1.0
 70
     8
 71
     3
 72
     8
 73
     4
 74
     0
 42
0.0000000001
 43
0.0000000001
 40
0.0
 40
0.0
 40
0.0
 40
0.0
 40
1.0
 40
1.0
 40
1.0
 40
1.0
 10
-74.30093499512146
 20
130.5362751271112
 30
0.0
 10
-74.30093499512146
 20
130.6468407754936
 30
0.0
 10
-74.39066327130866
 20
130.7369943041745
 30
0.0
 10
-74.50122891969105
 20
130.7369943041745
 30
0.0
  0
LINE
  5
286
102
{ACAD_REACTORS
330
17EF
102
}
330
A
100
AcDbEntity
  8
0
370
    13
100
AcDbLine
 10
-74.30093499512145
 20
129.7359499338205
 30
0.0
 11
-74.30093499512145
 21
130.5362751271112
 31
0.0
  0
SPLINE
  5
285
102
{ACAD_REACTORS
330
17EF
102
}
330
A
100
AcDbEntity
  8
0
370
    13
100
AcDbSpline
210
0.0
220
0.0
230
1.0
 70
     8
 71
     3
 72
     8
 73
     4
 74
     0
 42
0.0000000001
 43
0.0000000001
 40
0.0
 40
0.0
 40
0.0
 40
0.0
 40
1.0
 40
1.0
 40
1.0
 40
1.0
 10
-74.50122891969105
 20
129.5360812617446
 30
0.0
 10
-74.39066327130866
 20
129.5360812617446
 30
0.0
 10
-74.30093499512146
 20
129.6262347904257
 30
0.0
 10
-74.30093499512146
 20
129.7359499338205
 30
0.0
  0
LINE
  5
284
102
{ACAD_REACTORS
330
17EF
102
}
330
A
100
AcDbEntity
  8
0
370
    13
100
AcDbLine
 10
-75.12464907556998
 20
129.5360812617447
 30
0.0
 11
-74.50122891969103
 21
129.5360812617447
 31
0.0
  0
SPLINE
  5
283
102
{ACAD_REACTORS
330
17EF
102
}
330
A
100
AcDbEntity
  8
0
370
    13
100
AcDbSpline
210
0.0
220
0.0
230
1.0
 70
     8
 71
     3
 72
     8
 73
     4
 74
     0
 42
0.0000000001
 43
0.0000000001
 40
0.0
 40
0.0
 40
0.0
 40
0.0
 40
1.0
 40
1.0
 40
1.0
 40
1.0
 10
-75.12464907556998
 20
129.5360812617446
 30
0.0
 10
-75.23521472395234
 20
129.5360812617446
 30
0.0
 10
-75.32494300013955
 20
129.4467782380512
 30
0.0
 10
-75.32494300013955
 20
129.3362125896688
 30
0.0
  0
LINE
  5
282
102
{ACAD_REACTORS
330
17EF
102
}
330
A
100
AcDbEntity
  8
0
370
    13
100
AcDbLine
 10
-75.32494300013955
 20
127.9362813801508
 30
0.0
 11
-75.32494300013955
 21
129.3362125896689
 31
0.0
  0
SPLINE
  5
281
102
{ACAD_REACTORS
330
17EF
102
}
330
A
100
AcDbEntity
  8
0
370
    13
100
AcDbSpline
210
0.0
220
0.0
230
1.0
 70
     8
 71
     3
 72
     8
 73
     4
 74
     0
 42
0.0000000001
 43
0.0000000001
 40
0.0
 40
0.0
 40
0.0
 40
0.0
 40
1.0
 40
1.0
 40
1.0
 40
1.0
 10
-75.32494300013955
 20
127.9362813801508
 30
0.0
 10
-75.32494300013955
 20
127.8257157317684
 30
0.0
 10
-75.23521472395234
 20
127.736412708075
 30
0.0
 10
-75.12464907556998
 20
127.736412708075
 30
0.0
  0
LINE
  5
280
102
{ACAD_REACTORS
330
17EF
102
}
330
A
100
AcDbEntity
  8
0
370
    13
100
AcDbLine
 10
-74.60031275074138
 20
127.736412708075
 30
0.0
 11
-75.12464907556998
 21
127.736412708075
 31
0.0
  0
SPLINE
  5
27F
102
{ACAD_REACTORS
330
17EF
102
}
330
A
100
AcDbEntity
  8
0
370
    13
100
AcDbSpline
210
0.0
220
0.0
230
1.0
 70
     8
 71
     3
 72
     8
 73
     4
 74
     0
 42
0.0000000001
 43
0.0000000001
 40
0.0
 40
0.0
 40
0.0
 40
0.0
 40
1.0
 40
1.0
 40
1.0
 40
1.0
 10
-74.4000188261718
 20
127.5365440359992
 30
0.0
 10
-74.4000188261718
 20
127.6471096843815
 30
0.0
 10
-74.48974710235901
 20
127.736412708075
 30
0.0
 10
-74.60031275074138
 20
127.736412708075
 30
0.0
  0
LINE
  5
27E
102
{ACAD_REACTORS
330
17EF
102
}
330
A
100
AcDbEntity
  8
0
370
    13
100
AcDbLine
 10
-74.4000188261718
 20
126.9369380197718
 30
0.0
 11
-74.4000188261718
 21
127.5365440359992
 31
0.0
  0
SPLINE
  5
27D
102
{ACAD_REACTORS
330
17EF
102
}
330
A
100
AcDbEntity
  8
0
370
    13
100
AcDbSpline
210
0.0
220
0.0
230
1.0
 70
     8
 71
     3
 72
     8
 73
     4
 74
     0
 42
0.0000000001
 43
0.0000000001
 40
0.0
 40
0.0
 40
0.0
 40
0.0
 40
1.0
 40
1.0
 40
1.0
 40
1.0
 10
-74.60031275074138
 20
126.7362188427084
 30
0.0
 10
-74.48974710235901
 20
126.7362188427084
 30
0.0
 10
-74.4000188261718
 20
126.8263723713894
 30
0.0
 10
-74.4000188261718
 20
126.9369380197718
 30
0.0
  0
LINE
  5
27C
102
{ACAD_REACTORS
330
17EF
102
}
330
A
100
AcDbEntity
  8
0
370
    13
100
AcDbLine
 10
-75.12464907556998
 20
126.7362188427085
 30
0.0
 11
-74.60031275074138
 21
126.7362188427085
 31
0.0
  0
SPLINE
  5
27B
102
{ACAD_REACTORS
330
17EF
102
}
330
A
100
AcDbEntity
  8
0
370
    13
100
AcDbSpline
210
0.0
220
0.0
230
1.0
 70
     8
 71
     3
 72
     8
 73
     4
 74
     0
 42
0.0000000001
 43
0.0000000001
 40
0.0
 40
0.0
 40
0.0
 40
0.0
 40
1.0
 40
1.0
 40
1.0
 40
1.0
 10
-75.12464907556998
 20
126.7362188427084
 30
0.0
 10
-75.23521472395234
 20
126.7362188427084
 30
0.0
 10
-75.32494300013955
 20
126.6477663240026
 30
0.0
 10
-75.32494300013955
 20
126.5372006756202
 30
0.0
  0
LINE
  5
27A
102
{ACAD_REACTORS
330
17EF
102
}
330
A
100
AcDbEntity
  8
0
370
    13
100
AcDbLine
 10
-75.32494300013955
 20
123.9372069286598
 30
0.0
 11
-75.32494300013955
 21
126.5372006756202
 31
0.0
  0
SPLINE
  5
279
102
{ACAD_REACTORS
330
17EF
102
}
330
A
100
AcDbEntity
  8
0
370
    13
100
AcDbSpline
210
0.0
220
0.0
230
1.0
 70
     8
 71
     3
 72
     8
 73
     4
 74
     0
 42
0.0000000001
 43
0.0000000001
 40
0.0
 40
0.0
 40
0.0
 40
0.0
 40
1.0
 40
1.0
 40
1.0
 40
1.0
 10
-75.32494300013955
 20
123.9372069286598
 30
0.0
 10
-75.32494300013955
 20
123.6616433126915
 30
0.0
 10
-75.10126018841217
 20
123.4371099959765
 30
0.0
 10
-74.82612182493763
 20
123.4371099959765
 30
0.0
  0
LINE
  5
278
102
{ACAD_REACTORS
330
17EF
102
}
330
A
100
AcDbEntity
  8
0
370
    13
100
AcDbLine
 10
-70.92400494202812
 20
123.4371099959765
 30
0.0
 11
-74.82612182493763
 21
123.4371099959765
 31
0.0
  0
SPLINE
  5
277
102
{ACAD_REACTORS
330
17EF
102
}
330
A
100
AcDbEntity
  8
0
370
    13
100
AcDbSpline
210
0.0
220
0.0
230
1.0
 70
     8
 71
     3
 72
    11
 73
     7
 74
     0
 42
0.0000000001
 43
0.0000000001
 40
0.0
 40
0.0
 40
0.0
 40
0.0
 40
1.0
 40
1.0
 40
1.0
 40
2.0
 40
2.0
 40
2.0
 40
2.0
 10
-70.92400494202812
 20
123.4371099959765
 30
0.0
 10
-70.64716556857843
 20
123.4371099959765
 30
0.0
 10
-70.42348275685107
 20
123.6616433126915
 30
0.0
 10
-70.42348275685107
 20
123.9372069286598
 30
0.0
 10
-70.42348275685107
 20
123.9508150084607
 30
0.0
 10
-70.42348275685107
 20
123.9627220782865
 30
0.0
 10
-70.42518376682619
 20
123.9754796530998
 30
0.0
  0
LINE
  5
276
102
{ACAD_REACTORS
330
17EF
102
}
330
A
100
AcDbEntity
  8
0
370
    13
100
AcDbLine
 10
-70.62377668142064
 20
126.5525097653962
 30
0.0
 11
-70.42518376682619
 21
123.9754796530998
 31
0.0
  0
SPLINE
  5
275
102
{ACAD_REACTORS
330
17EF
102
}
330
A
100
AcDbEntity
  8
0
370
    13
100
AcDbSpline
210
0.0
220
0.0
230
1.0
 70
     8
 71
     3
 72
     8
 73
     4
 74
     0
 42
0.0000000001
 43
0.0000000001
 40
0.0
 40
0.0
 40
0.0
 40
0.0
 40
1.0
 40
1.0
 40
1.0
 40
1.0
 10
-70.62377668142062
 20
126.5525097653962
 30
0.0
 10
-70.63143122630865
 20
126.6562713738781
 30
0.0
 10
-70.7186079875332
 20
126.7362188427084
 30
0.0
 10
-70.82322010100266
 20
126.7362188427084
 30
0.0
  0
LINE
  5
274
102
{ACAD_REACTORS
330
17EF
102
}
330
A
100
AcDbEntity
  8
0
370
    13
100
AcDbLine
 10
-71.50064732359147
 20
126.7362188427085
 30
0.0
 11
-70.82322010100266
 21
126.7362188427085
 31
0.0
  0
SPLINE
  5
273
102
{ACAD_REACTORS
330
17EF
102
}
330
A
100
AcDbEntity
  8
0
370
    13
100
AcDbSpline
210
0.0
220
0.0
230
1.0
 70
     8
 71
     3
 72
     8
 73
     4
 74
     0
 42
0.0000000001
 43
0.0000000001
 40
0.0
 40
0.0
 40
0.0
 40
0.0
 40
1.0
 40
1.0
 40
1.0
 40
1.0
 10
-71.7017917531486
 20
126.9369380197718
 30
0.0
 10
-71.7017917531486
 20
126.8263723713894
 30
0.0
 10
-71.61121297197381
 20
126.7362188427084
 30
0.0
 10
-71.50064732359147
 20
126.7362188427084
 30
0.0
  0
LINE
  5
272
102
{ACAD_REACTORS
330
17EF
102
}
330
A
100
AcDbEntity
  8
0
370
    13
100
AcDbLine
 10
-71.7017917531486
 20
127.5365440359992
 30
0.0
 11
-71.7017917531486
 21
126.9369380197718
 31
0.0
  0
SPLINE
  5
271
102
{ACAD_REACTORS
330
17EF
102
}
330
A
100
AcDbEntity
  8
0
370
    13
100
AcDbSpline
210
0.0
220
0.0
230
1.0
 70
     8
 71
     3
 72
     8
 73
     4
 74
     0
 42
0.0000000001
 43
0.0000000001
 40
0.0
 40
0.0
 40
0.0
 40
0.0
 40
1.0
 40
1.0
 40
1.0
 40
1.0
 10
-71.50064732359147
 20
127.736412708075
 30
0.0
 10
-71.61121297197381
 20
127.736412708075
 30
0.0
 10
-71.7017917531486
 20
127.6471096843815
 30
0.0
 10
-71.7017917531486
 20
127.5365440359992
 30
0.0
  0
LINE
  5
270
102
{ACAD_REACTORS
330
17EF
102
}
330
A
100
AcDbEntity
  8
0
370
    13
100
AcDbLine
 10
-70.93038372943478
 20
127.736412708075
 30
0.0
 11
-71.50064732359147
 21
127.736412708075
 31
0.0
  0
SPLINE
  5
26F
102
{ACAD_REACTORS
330
17EF
102
}
330
A
100
AcDbEntity
  8
0
370
    13
100
AcDbSpline
210
0.0
220
0.0
230
1.0
 70
     8
 71
     3
 72
    11
 73
     7
 74
     0
 42
0.0000000001
 43
0.0000000001
 40
0.0
 40
0.0
 40
0.0
 40
0.0
 40
1.0
 40
1.0
 40
1.0
 40
2.0
 40
2.0
 40
2.0
 40
2.0
 10
-70.93038372943478
 20
127.736412708075
 30
0.0
 10
-70.81981808105244
 20
127.736412708075
 30
0.0
 10
-70.73094030985277
 20
127.8257157317684
 30
0.0
 10
-70.73094030985277
 20
127.9362813801508
 30
0.0
 10
-70.73094030985277
 20
127.9422349150637
 30
0.0
 10
-70.73094030985277
 20
127.947337944989
 30
0.0
 10
-70.73094030985277
 20
127.9524409749143
 30
0.0
  0
LINE
  5
26E
102
{ACAD_REACTORS
330
17EF
102
}
330
A
100
AcDbEntity
  8
0
370
    13
100
AcDbLine
 10
-70.77601707419325
 20
128.5367379013657
 30
0.0
 11
-70.73094030985277
 21
127.9524409749143
 31
0.0
  0
LINE
  5
26D
102
{ACAD_REACTORS
330
17EF
102
}
330
A
100
AcDbEntity
  8
0
370
    13
100
AcDbLine
 10
-70.77601707419325
 20
129.3362125896689
 30
0.0
 11
-70.77601707419325
 21
128.5367379013657
 31
0.0
  0
SPLINE
  5
26C
102
{ACAD_REACTORS
330
17EF
102
}
330
A
100
AcDbEntity
  8
0
370
    13
100
AcDbSpline
210
0.0
220
0.0
230
1.0
 70
     8
 71
     3
 72
     8
 73
     4
 74
     0
 42
0.0000000001
 43
0.0000000001
 40
0.0
 40
0.0
 40
0.0
 40
0.0
 40
1.0
 40
1.0
 40
1.0
 40
1.0
 10
-70.77601707419326
 20
129.3362125896688
 30
0.0
 10
-70.77601707419326
 20
129.4467782380512
 30
0.0
 10
-70.86659585536804
 20
129.5360812617446
 30
0.0
 10
-70.97716150375038
 20
129.5360812617446
 30
0.0
  0
LINE
  5
26B
102
{ACAD_REACTORS
330
17EF
102
}
330
A
100
AcDbEntity
  8
0
370
    13
100
AcDbLine
 10
-71.60100691212313
 20
129.5360812617447
 30
0.0
 11
-70.97716150375039
 21
129.5360812617447
 31
0.0
  0
SPLINE
  5
26A
102
{ACAD_REACTORS
330
17EF
102
}
330
A
100
AcDbEntity
  8
0
370
    13
100
AcDbSpline
210
0.0
220
0.0
230
1.0
 70
     8
 71
     3
 72
     8
 73
     4
 74
     0
 42
0.0000000001
 43
0.0000000001
 40
0.0
 40
0.0
 40
0.0
 40
0.0
 40
1.0
 40
1.0
 40
1.0
 40
1.0
 10
-71.80130083669272
 20
129.7359499338205
 30
0.0
 10
-71.80130083669272
 20
129.6262347904257
 30
0.0
 10
-71.71242306549304
 20
129.5360812617446
 30
0.0
 10
-71.60100691212313
 20
129.5360812617446
 30
0.0
  0
LINE
  5
269
102
{ACAD_REACTORS
330
17EF
102
}
330
A
100
AcDbEntity
  8
0
370
    13
100
AcDbLine
 10
-71.8013008366927
 20
130.5362751271112
 30
0.0
 11
-71.8013008366927
 21
129.7359499338205
 31
0.0
  0
SPLINE
  5
268
102
{ACAD_REACTORS
330
17EF
102
}
330
A
100
AcDbEntity
  8
0
370
    13
100
AcDbSpline
210
0.0
220
0.0
230
1.0
 70
     8
 71
     3
 72
     8
 73
     4
 74
     0
 42
0.0000000001
 43
0.0000000001
 40
0.0
 40
0.0
 40
0.0
 40
0.0
 40
1.0
 40
1.0
 40
1.0
 40
1.0
 10
-71.60100691212313
 20
130.7369943041745
 30
0.0
 10
-71.71242306549304
 20
130.7369943041745
 30
0.0
 10
-71.80130083669272
 20
130.6468407754936
 30
0.0
 10
-71.80130083669272
 20
130.5362751271112
 30
0.0
  0
LINE
  5
267
102
{ACAD_REACTORS
330
17EF
102
}
330
A
100
AcDbEntity
  8
0
370
    13
100
AcDbLine
 10
-70.08540702429733
 20
130.7369943041745
 30
0.0
 11
-71.60100691212313
 21
130.7369943041745
 31
0.0
  0
SPLINE
  5
266
102
{ACAD_REACTORS
330
17EF
102
}
330
A
100
AcDbEntity
  8
0
370
    13
100
AcDbSpline
210
0.0
220
0.0
230
1.0
 70
     8
 71
     3
 72
     8
 73
     4
 74
     0
 42
0.0000000001
 43
0.0000000001
 40
0.0
 40
0.0
 40
0.0
 40
0.0
 40
1.0
 40
1.0
 40
1.0
 40
1.0
 10
-69.08563841142461
 20
129.7359499338205
 30
0.0
 10
-69.08563841142461
 20
130.2887781757322
 30
0.0
 10
-69.53342928737312
 20
130.7369943041745
 30
0.0
 10
-70.08540702429733
 20
130.7369943041745
 30
0.0
  0
LINE
  5
265
102
{ACAD_REACTORS
330
17EF
102
}
330
A
100
AcDbEntity
  8
0
370
    13
100
AcDbLine
 10
-69.08563841142459
 20
126.1213037367051
 30
0.0
 11
-69.08563841142459
 21
129.7359499338205
 31
0.0
  0
LINE
  5
264
102
{ACAD_REACTORS
330
17EF
102
}
330
A
100
AcDbEntity
  8
0
370
    13
100
AcDbLine
 10
-61.38941877902523
 20
26.27366481227811
 30
0.0
 11
-69.08563841142459
 21
126.1213037367051
 31
0.0
  0
SPLINE
  5
263
102
{ACAD_REACTORS
330
17EF
102
}
330
A
100
AcDbEntity
  8
0
370
    13
100
AcDbSpline
210
0.0
220
0.0
230
1.0
 70
     8
 71
     3
 72
    11
 73
     7
 74
     0
 42
0.0000000001
 43
0.0000000001
 40
0.0
 40
0.0
 40
0.0
 40
0.0
 40
1.0
 40
1.0
 40
1.0
 40
2.0
 40
2.0
 40
2.0
 40
2.0
 10
-61.88823995422715
 20
25.73529515515481
 30
0.0
 10
-61.6114005807775
 20
25.73529515515481
 30
0.0
 10
-61.38771776905011
 20
25.95982847186973
 30
0.0
 10
-61.38771776905011
 20
26.23624259282563
 30
0.0
 10
-61.38771776905011
 20
26.24814966265141
 30
0.0
 10
-61.38771776905011
 20
26.26005673247721
 30
0.0
 10
-61.38941877902523
 20
26.27366481227812
 30
0.0
  0
LINE
  5
262
102
{ACAD_REACTORS
330
17EF
102
}
330
A
100
AcDbEntity
  8
0
370
    13
100
AcDbLine
 10
-84.04729690002591
 20
25.73529515515481
 30
0.0
 11
-61.88823995422715
 21
25.73529515515481
 31
0.0
  0
SPLINE
  5
261
102
{ACAD_REACTORS
330
17EF
102
}
330
A
100
AcDbEntity
  8
0
370
    13
100
AcDbSpline
210
0.0
220
0.0
230
1.0
 70
     8
 71
     3
 72
     8
 73
     4
 74
     0
 42
0.0000000001
 43
0.0000000001
 40
0.0
 40
0.0
 40
0.0
 40
0.0
 40
1.0
 40
1.0
 40
1.0
 40
1.0
 10
-84.1901817379354
 20
25.79312949430866
 30
0.0
 10
-84.15275951848292
 20
25.75570727485616
 30
0.0
 10
-84.10130396673578
 20
25.73529515515481
 30
0.0
 10
-84.04729690002593
 20
25.73529515515481
 30
0.0
  0
LINE
  5
260
102
{ACAD_REACTORS
330
17EF
102
}
330
A
100
AcDbEntity
  8
0
370
    13
100
AcDbLine
 10
-85.07130490504401
 20
26.67680417637993
 30
0.0
 11
-84.1901817379354
 21
25.79312949430866
 31
0.0
  0
SPLINE
  5
25F
102
{ACAD_REACTORS
330
17EF
102
}
330
A
100
AcDbEntity
  8
0
370
    13
100
AcDbSpline
210
0.0
220
0.0
230
1.0
 70
     8
 71
     3
 72
     8
 73
     4
 74
     0
 42
0.0000000001
 43
0.0000000001
 40
0.0
 40
0.0
 40
0.0
 40
0.0
 40
1.0
 40
1.0
 40
1.0
 40
1.0
 10
-85.07130490504401
 20
26.67680417637994
 30
0.0
 10
-85.1087271244965
 20
26.71422639583242
 30
0.0
 10
-85.16018267624369
 20
26.73463851553377
 30
0.0
 10
-85.21333923796595
 20
26.73463851553377
 30
0.0
  0
LINE
  5
25E
102
{ACAD_REACTORS
330
17EF
102
}
330
A
100
AcDbEntity
  8
0
370
    13
100
AcDbLine
 10
-113.6312623871934
 20
26.73463851553377
 30
0.0
 11
-85.21333923796595
 21
26.73463851553377
 31
0.0
  0
SPLINE
  5
25D
102
{ACAD_REACTORS
330
17EF
102
}
330
A
100
AcDbEntity
  8
0
370
    13
100
AcDbSpline
210
0.0
220
0.0
230
1.0
 70
     8
 71
     3
 72
     8
 73
     4
 74
     0
 42
0.0000000001
 43
0.0000000001
 40
0.0
 40
0.0
 40
0.0
 40
0.0
 40
1.0
 40
1.0
 40
1.0
 40
1.0
 10
-113.6312623871934
 20
26.73463851553377
 30
0.0
 10
-113.6844189489158
 20
26.73463851553377
 30
0.0
 10
-113.7358745006629
 20
26.71422639583242
 30
0.0
 10
-113.7732967201154
 20
26.67680417637994
 30
0.0
  0
LINE
  5
25C
102
{ACAD_REACTORS
330
17EF
102
}
330
A
100
AcDbEntity
  8
0
370
    13
100
AcDbLine
 10
-114.6565461496929
 20
25.79312949430866
 30
0.0
 11
-113.7732967201154
 21
26.67680417637993
 31
0.0
  0
SPLINE
  5
25B
102
{ACAD_REACTORS
330
17EF
102
}
330
A
100
AcDbEntity
  8
0
370
    13
100
AcDbSpline
210
0.0
220
0.0
230
1.0
 70
     8
 71
     3
 72
     8
 73
     4
 74
     0
 42
0.0000000001
 43
0.0000000001
 40
0.0
 40
0.0
 40
0.0
 40
0.0
 40
1.0
 40
1.0
 40
1.0
 40
1.0
 10
-114.7964542201459
 20
25.73529515515481
 30
0.0
 10
-114.7437229109175
 20
25.73529515515481
 30
0.0
 10
-114.6939683691454
 20
25.75570727485616
 30
0.0
 10
-114.6565461496929
 20
25.79312949430866
 30
0.0
  0
LINE
  5
25A
102
{ACAD_REACTORS
330
17EF
102
}
330
A
100
AcDbEntity
  8
0
370
    13
100
AcDbLine
 10
-128.8901723689458
 20
25.73529515515481
 30
0.0
 11
-114.796454220146
 21
25.73529515515481
 31
0.0
  0
LINE
  5
258
102
{ACAD_REACTORS
330
17EF
102
}
330
A
100
AcDbEntity
  8
0
370
    13
100
AcDbLine
 10
-121.405728478448
 20
129.8116468876881
 30
0.0
 11
-129.3877177866664
 21
26.271963802303
 31
0.0
  0
SPLINE
  5
257
102
{ACAD_REACTORS
330
17EF
102
}
330
A
100
AcDbEntity
  8
0
370
    13
100
AcDbSpline
210
0.0
220
0.0
230
1.0
 70
     8
 71
     3
 72
     8
 73
     4
 74
     0
 42
0.0000000001
 43
0.0000000001
 40
0.0
 40
0.0
 40
0.0
 40
0.0
 40
1.0
 40
1.0
 40
1.0
 40
1.0
 10
-120.4080861280442
 20
130.7352953041745
 30
0.0
 10
-120.9307214428976
 20
130.7352953041745
 30
0.0
 10
-121.3657547440328
 20
130.3321559400727
 30
0.0
 10
-121.405728478448
 20
129.8116468876881
 30
0.0
  0
LINE
  5
256
102
{ACAD_REACTORS
330
17EF
102
}
330
A
100
AcDbEntity
  8
0
370
    13
100
AcDbLine
 10
-119.0859761248875
 20
130.7352953041745
 30
0.0
 11
-120.4080861280442
 21
130.7352953041745
 31
0.0
  0
SPLINE
  5
255
102
{ACAD_REACTORS
330
17EF
102
}
330
A
100
AcDbEntity
  8
0
370
    13
100
AcDbSpline
210
0.0
220
0.0
230
1.0
 70
     8
 71
     3
 72
     8
 73
     4
 74
     0
 42
0.0000000001
 43
0.0000000001
 40
0.0
 40
0.0
 40
0.0
 40
0.0
 40
1.0
 40
1.0
 40
1.0
 40
1.0
 10
-118.8865327053054
 20
130.5345761271112
 30
0.0
 10
-118.8865327053054
 20
130.6451417754935
 30
0.0
 10
-118.9754104765051
 20
130.7352953041745
 30
0.0
 10
-119.0859761248875
 20
130.7352953041745
 30
0.0
  0
LINE
  5
254
102
{ACAD_REACTORS
330
17EF
102
}
330
A
100
AcDbEntity
  8
0
370
    13
100
AcDbLine
 10
-118.8865327053055
 20
129.7342509338205
 30
0.0
 11
-118.8865327053055
 21
130.5345761271112
 31
0.0
  0
SPLINE
  5
253
102
{ACAD_REACTORS
330
17EF
102
}
330
A
100
AcDbEntity
  8
0
370
    13
100
AcDbSpline
210
0.0
220
0.0
230
1.0
 70
     8
 71
     3
 72
     8
 73
     4
 74
     0
 42
0.0000000001
 43
0.0000000001
 40
0.0
 40
0.0
 40
0.0
 40
0.0
 40
1.0
 40
1.0
 40
1.0
 40
1.0
 10
-119.0859761248875
 20
129.5343822617446
 30
0.0
 10
-118.9754104765051
 20
129.5343822617446
 30
0.0
 10
-118.8865327053054
 20
129.6245357904257
 30
0.0
 10
-118.8865327053054
 20
129.7342509338205
 30
0.0
  0
LINE
  5
252
102
{ACAD_REACTORS
330
17EF
102
}
330
A
100
AcDbEntity
  8
0
370
    13
100
AcDbLine
 10
-119.7991245569536
 20
129.5343822617447
 30
0.0
 11
-119.0859761248875
 21
129.5343822617447
 31
0.0
  0
SPLINE
  5
251
102
{ACAD_REACTORS
330
17EF
102
}
330
A
100
AcDbEntity
  8
0
370
    13
100
AcDbSpline
210
0.0
220
0.0
230
1.0
 70
     8
 71
     3
 72
     8
 73
     4
 74
     0
 42
0.0000000001
 43
0.0000000001
 40
0.0
 40
0.0
 40
0.0
 40
0.0
 40
1.0
 40
1.0
 40
1.0
 40
1.0
 10
-119.7991245569536
 20
129.5343822617446
 30
0.0
 10
-119.909690205336
 20
129.5343822617446
 30
0.0
 10
-120.0002689865108
 20
129.4450792380512
 30
0.0
 10
-120.0002689865108
 20
129.3345135896688
 30
0.0
  0
LINE
  5
250
102
{ACAD_REACTORS
330
17EF
102
}
330
A
100
AcDbEntity
  8
0
370
    13
100
AcDbLine
 10
-120.0002689865108
 20
128.5350389013657
 30
0.0
 11
-120.0002689865108
 21
129.3345135896689
 31
0.0
  0
LINE
  5
24F
102
{ACAD_REACTORS
330
17EF
102
}
330
A
100
AcDbEntity
  8
0
370
    13
100
AcDbLine
 10
-120.04406999337
 20
127.9507419749143
 30
0.0
 11
-120.0002689865108
 21
128.5350389013657
 31
0.0
  0
LINE
  5
24D
102
{ACAD_REACTORS
330
17EF
102
}
330
A
100
AcDbEntity
  8
0
370
    13
100
AcDbLine
 10
-119.1867609659129
 20
127.734713708075
 30
0.0
 11
-119.844626573788
 21
127.734713708075
 31
0.0
  0
SPLINE
  5
24C
102
{ACAD_REACTORS
330
17EF
102
}
330
A
100
AcDbEntity
  8
0
370
    13
100
AcDbSpline
210
0.0
220
0.0
230
1.0
 70
     8
 71
     3
 72
     8
 73
     4
 74
     0
 42
0.0000000001
 43
0.0000000001
 40
0.0
 40
0.0
 40
0.0
 40
0.0
 40
1.0
 40
1.0
 40
1.0
 40
1.0
 10
-118.9864670413434
 20
127.5348450359992
 30
0.0
 10
-118.9864670413434
 20
127.6454106843815
 30
0.0
 10
-119.0761953175306
 20
127.734713708075
 30
0.0
 10
-119.1867609659129
 20
127.734713708075
 30
0.0
  0
LINE
  5
24B
102
{ACAD_REACTORS
330
17EF
102
}
330
A
100
AcDbEntity
  8
0
370
    13
100
AcDbLine
 10
-118.9864670413434
 20
126.9352390197718
 30
0.0
 11
-118.9864670413434
 21
127.5348450359992
 31
0.0
  0
SPLINE
  5
24A
102
{ACAD_REACTORS
330
17EF
102
}
330
A
100
AcDbEntity
  8
0
370
    13
100
AcDbSpline
210
0.0
220
0.0
230
1.0
 70
     8
 71
     3
 72
     8
 73
     4
 74
     0
 42
0.0000000001
 43
0.0000000001
 40
0.0
 40
0.0
 40
0.0
 40
0.0
 40
1.0
 40
1.0
 40
1.0
 40
1.0
 10
-119.1867609659129
 20
126.7345198427084
 30
0.0
 10
-119.0761953175306
 20
126.7345198427084
 30
0.0
 10
-118.9864670413434
 20
126.8246733713894
 30
0.0
 10
-118.9864670413434
 20
126.9352390197718
 30
0.0
  0
LINE
  5
249
102
{ACAD_REACTORS
330
17EF
102
}
330
A
100
AcDbEntity
  8
0
370
    13
100
AcDbLine
 10
-119.9534912121951
 20
126.7345198427085
 30
0.0
 11
-119.1867609659129
 21
126.7345198427085
 31
0.0
  0
SPLINE
  5
248
102
{ACAD_REACTORS
330
17EF
102
}
330
A
100
AcDbEntity
  8
0
370
    13
100
AcDbSpline
210
0.0
220
0.0
230
1.0
 70
     8
 71
     3
 72
     8
 73
     4
 74
     0
 42
0.0000000001
 43
0.0000000001
 40
0.0
 40
0.0
 40
0.0
 40
0.0
 40
1.0
 40
1.0
 40
1.0
 40
1.0
 10
-119.9534912121951
 20
126.7345198427084
 30
0.0
 10
-120.0576780731708
 20
126.7345198427084
 30
0.0
 10
-120.1448548343954
 20
126.6545723738781
 30
0.0
 10
-120.1529346317772
 20
126.5508107653962
 30
0.0
  0
LINE
  5
247
102
{ACAD_REACTORS
330
17EF
102
}
330
A
100
AcDbEntity
  8
0
370
    13
100
AcDbLine
 10
-120.391076028293
 20
123.4600756406157
 30
0.0
 11
-120.1529346317772
 21
126.5508107653962
 31
0.0
  0
LINE
  5
245
102
{ACAD_REACTORS
330
17EF
102
}
330
A
100
AcDbEntity
  8
0
370
    13
100
AcDbLine
 10
-115.7728339458609
 20
122.9217059834924
 30
0.0
 11
-119.8931053580786
 21
122.9217059834924
 31
0.0
  0
SPLINE
  5
244
102
{ACAD_REACTORS
330
17EF
102
}
330
A
100
AcDbEntity
  8
0
370
    13
100
AcDbSpline
210
0.0
220
0.0
230
1.0
 70
     8
 71
     3
 72
     8
 73
     4
 74
     0
 42
0.0000000001
 43
0.0000000001
 40
0.0
 40
0.0
 40
0.0
 40
0.0
 40
1.0
 40
1.0
 40
1.0
 40
1.0
 10
-115.7728339458609
 20
122.9217059834924
 30
0.0
 10
-115.4976955823863
 20
122.9217059834924
 30
0.0
 10
-115.274012770659
 20
123.1453887952197
 30
0.0
 10
-115.274012770659
 20
123.4218029161756
 30
0.0
  0
LINE
  5
243
102
{ACAD_REACTORS
330
17EF
102
}
330
A
100
AcDbEntity
  8
0
370
    13
100
AcDbLine
 10
-115.2740127706589
 20
126.5355016756202
 30
0.0
 11
-115.2740127706589
 21
123.4218029161757
 31
0.0
  0
SPLINE
  5
242
102
{ACAD_REACTORS
330
17EF
102
}
330
A
100
AcDbEntity
  8
0
370
    13
100
AcDbSpline
210
0.0
220
0.0
230
1.0
 70
     8
 71
     3
 72
     8
 73
     4
 74
     0
 42
0.0000000001
 43
0.0000000001
 40
0.0
 40
0.0
 40
0.0
 40
0.0
 40
1.0
 40
1.0
 40
1.0
 40
1.0
 10
-115.274012770659
 20
126.5355016756202
 30
0.0
 10
-115.274012770659
 20
126.6460673240026
 30
0.0
 10
-115.3628905418586
 20
126.7345198427084
 30
0.0
 10
-115.473456190241
 20
126.7345198427084
 30
0.0
  0
LINE
  5
241
102
{ACAD_REACTORS
330
17EF
102
}
330
A
100
AcDbEntity
  8
0
370
    13
100
AcDbLine
 10
-116.0875207912568
 20
126.7345198427085
 30
0.0
 11
-115.473456190241
 21
126.7345198427085
 31
0.0
  0
SPLINE
  5
240
102
{ACAD_REACTORS
330
17EF
102
}
330
A
100
AcDbEntity
  8
0
370
    13
100
AcDbSpline
210
0.0
220
0.0
230
1.0
 70
     8
 71
     3
 72
     8
 73
     4
 74
     0
 42
0.0000000001
 43
0.0000000001
 40
0.0
 40
0.0
 40
0.0
 40
0.0
 40
1.0
 40
1.0
 40
1.0
 40
1.0
 10
-116.2878147158264
 20
126.9352390197718
 30
0.0
 10
-116.2878147158264
 20
126.8246733713894
 30
0.0
 10
-116.1980864396392
 20
126.7345198427084
 30
0.0
 10
-116.0875207912568
 20
126.7345198427084
 30
0.0
  0
LINE
  5
23F
102
{ACAD_REACTORS
330
17EF
102
}
330
A
100
AcDbEntity
  8
0
370
    13
100
AcDbLine
 10
-116.2878147158264
 20
127.5348450359992
 30
0.0
 11
-116.2878147158264
 21
126.9352390197718
 31
0.0
  0
SPLINE
  5
23E
102
{ACAD_REACTORS
330
17EF
102
}
330
A
100
AcDbEntity
  8
0
370
    13
100
AcDbSpline
210
0.0
220
0.0
230
1.0
 70
     8
 71
     3
 72
     8
 73
     4
 74
     0
 42
0.0000000001
 43
0.0000000001
 40
0.0
 40
0.0
 40
0.0
 40
0.0
 40
1.0
 40
1.0
 40
1.0
 40
1.0
 10
-116.0875207912568
 20
127.734713708075
 30
0.0
 10
-116.1980864396392
 20
127.734713708075
 30
0.0
 10
-116.2878147158264
 20
127.6454106843815
 30
0.0
 10
-116.2878147158264
 20
127.5348450359992
 30
0.0
  0
LINE
  5
23D
102
{ACAD_REACTORS
330
17EF
102
}
330
A
100
AcDbEntity
  8
0
370
    13
100
AcDbLine
 10
-115.473456190241
 20
127.734713708075
 30
0.0
 11
-116.0875207912568
 21
127.734713708075
 31
0.0
  0
SPLINE
  5
23C
102
{ACAD_REACTORS
330
17EF
102
}
330
A
100
AcDbEntity
  8
0
370
    13
100
AcDbSpline
210
0.0
220
0.0
230
1.0
 70
     8
 71
     3
 72
     8
 73
     4
 74
     0
 42
0.0000000001
 43
0.0000000001
 40
0.0
 40
0.0
 40
0.0
 40
0.0
 40
1.0
 40
1.0
 40
1.0
 40
1.0
 10
-115.473456190241
 20
127.734713708075
 30
0.0
 10
-115.3628905418586
 20
127.734713708075
 30
0.0
 10
-115.274012770659
 20
127.8240167317684
 30
0.0
 10
-115.274012770659
 20
127.9345823801508
 30
0.0
  0
LINE
  5
23B
102
{ACAD_REACTORS
330
17EF
102
}
330
A
100
AcDbEntity
  8
0
370
    13
100
AcDbLine
 10
-115.2740127706589
 20
129.3345135896689
 30
0.0
 11
-115.2740127706589
 21
127.9345823801508
 31
0.0
  0
SPLINE
  5
23A
102
{ACAD_REACTORS
330
17EF
102
}
330
A
100
AcDbEntity
  8
0
370
    13
100
AcDbSpline
210
0.0
220
0.0
230
1.0
 70
     8
 71
     3
 72
     8
 73
     4
 74
     0
 42
0.0000000001
 43
0.0000000001
 40
0.0
 40
0.0
 40
0.0
 40
0.0
 40
1.0
 40
1.0
 40
1.0
 40
1.0
 10
-115.274012770659
 20
129.3345135896688
 30
0.0
 10
-115.274012770659
 20
129.4450792380512
 30
0.0
 10
-115.3628905418586
 20
129.5343822617446
 30
0.0
 10
-115.473456190241
 20
129.5343822617446
 30
0.0
  0
LINE
  5
239
102
{ACAD_REACTORS
330
17EF
102
}
330
A
100
AcDbEntity
  8
0
370
    13
100
AcDbLine
 10
-116.1866046223072
 20
129.5343822617447
 30
0.0
 11
-115.473456190241
 21
129.5343822617447
 31
0.0
  0
SPLINE
  5
238
102
{ACAD_REACTORS
330
17EF
102
}
330
A
100
AcDbEntity
  8
0
370
    13
100
AcDbSpline
210
0.0
220
0.0
230
1.0
 70
     8
 71
     3
 72
     8
 73
     4
 74
     0
 42
0.0000000001
 43
0.0000000001
 40
0.0
 40
0.0
 40
0.0
 40
0.0
 40
1.0
 40
1.0
 40
1.0
 40
1.0
 10
-116.3860480418892
 20
129.7342509338205
 30
0.0
 10
-116.3860480418892
 20
129.6245357904257
 30
0.0
 10
-116.2971702706895
 20
129.5343822617446
 30
0.0
 10
-116.1866046223071
 20
129.5343822617446
 30
0.0
  0
LINE
  5
237
102
{ACAD_REACTORS
330
17EF
102
}
330
A
100
AcDbEntity
  8
0
370
    13
100
AcDbLine
 10
-116.3860480418892
 20
130.5345761271112
 30
0.0
 11
-116.3860480418892
 21
129.7342509338205
 31
0.0
  0
SPLINE
  5
236
102
{ACAD_REACTORS
330
17EF
102
}
330
A
100
AcDbEntity
  8
0
370
    13
100
AcDbSpline
210
0.0
220
0.0
230
1.0
 70
     8
 71
     3
 72
     8
 73
     4
 74
     0
 42
0.0000000001
 43
0.0000000001
 40
0.0
 40
0.0
 40
0.0
 40
0.0
 40
1.0
 40
1.0
 40
1.0
 40
1.0
 10
-116.1866046223071
 20
130.7352953041745
 30
0.0
 10
-116.2971702706895
 20
130.7352953041745
 30
0.0
 10
-116.3860480418892
 20
130.6451417754935
 30
0.0
 10
-116.3860480418892
 20
130.5345761271112
 30
0.0
  0
LINE
  5
235
102
{ACAD_REACTORS
330
17EF
102
}
330
A
100
AcDbEntity
  8
0
370
    13
100
AcDbLine
 10
-114.7730653329881
 20
130.7352953041745
 30
0.0
 11
-116.1866046223072
 21
130.7352953041745
 31
0.0
  0
SPLINE
  5
234
102
{ACAD_REACTORS
330
17EF
102
}
330
A
100
AcDbEntity
  8
0
370
    13
100
AcDbSpline
210
0.0
220
0.0
230
1.0
 70
     8
 71
     3
 72
     8
 73
     4
 74
     0
 42
0.0000000001
 43
0.0000000001
 40
0.0
 40
0.0
 40
0.0
 40
0.0
 40
1.0
 40
1.0
 40
1.0
 40
1.0
 10
-113.7732967201154
 20
129.7342509338205
 30
0.0
 10
-113.7732967201154
 20
130.2870791757322
 30
0.0
 10
-114.2210875960639
 20
130.7352953041745
 30
0.0
 10
-114.7730653329881
 20
130.7352953041745
 30
0.0
  0
LINE
  5
233
102
{ACAD_REACTORS
330
17EF
102
}
330
A
100
AcDbEntity
  8
0
370
    13
100
AcDbLine
 10
-113.7732967201154
 20
121.6212838575184
 30
0.0
 11
-113.7732967201154
 21
129.7342509338205
 31
0.0
  0
SPLINE
  5
232
102
{ACAD_REACTORS
330
17EF
102
}
330
A
100
AcDbEntity
  8
0
370
    13
100
AcDbSpline
210
0.0
220
0.0
230
1.0
 70
     8
 71
     3
 72
     8
 73
     4
 74
     0
 42
0.0000000001
 43
0.0000000001
 40
0.0
 40
0.0
 40
0.0
 40
0.0
 40
1.0
 40
1.0
 40
1.0
 40
1.0
 10
-113.9735906446849
 20
121.4222656904301
 30
0.0
 10
-113.8630249963026
 20
121.4222656904301
 30
0.0
 10
-113.7732967201154
 20
121.5115687141236
 30
0.0
 10
-113.7732967201154
 20
121.6212838575184
 30
0.0
  0
LINE
  5
231
102
{ACAD_REACTORS
330
17EF
102
}
330
A
100
AcDbEntity
  8
0
370
    13
100
AcDbLine
 10
-114.3116663772387
 20
121.4222656904302
 30
0.0
 11
-113.973590644685
 21
121.4222656904302
 31
0.0
  0
SPLINE
  5
230
102
{ACAD_REACTORS
330
17EF
102
}
330
A
100
AcDbEntity
  8
0
370
    13
100
AcDbSpline
210
0.0
220
0.0
230
1.0
 70
     8
 71
     3
 72
    11
 73
     7
 74
     0
 42
0.0000000001
 43
0.0000000001
 40
0.0
 40
0.0
 40
0.0
 40
0.0
 40
1.0
 40
1.0
 40
1.0
 40
2.0
 40
2.0
 40
2.0
 40
2.0
 10
-114.3116663772387
 20
121.4222656904301
 30
0.0
 10
-114.4205310156459
 20
121.4222656904301
 30
0.0
 10
-114.5102592918332
 20
121.3321121617491
 30
0.0
 10
-114.5102592918332
 20
121.2215465133668
 30
0.0
 10
-114.5102592918332
 20
121.2062374235908
 30
0.0
 10
-114.508558281858
 20
121.1917788388023
 30
0.0
 10
-114.5055815144016
 20
121.1756192440387
 30
0.0
  0
SPLINE
  5
22F
102
{ACAD_REACTORS
330
17EF
102
}
330
A
100
AcDbEntity
  8
0
370
    13
100
AcDbSpline
210
0.0
220
0.0
230
1.0
 70
     8
 71
     3
 72
     8
 73
     4
 74
     0
 42
0.0000000001
 43
0.0000000001
 40
0.0
 40
0.0
 40
0.0
 40
0.0
 40
1.0
 40
1.0
 40
1.0
 40
1.0
 10
-113.72992096575
 20
41.75455659578273
 30
0.0
 10
-108.0732122935113
 20
67.95096071751252
 30
0.0
 10
-108.3377193446413
 20
95.07866780061673
 30
0.0
 10
-114.5055815144016
 20
121.1756192440387
 30
0.0
  0
LINE
  5
22D
102
{ACAD_REACTORS
330
17EF
102
}
330
A
100
AcDbEntity
  8
0
370
    13
100
AcDbLine
 10
-97.61625347150337
 20
39.33316889620917
 30
0.0
 11
-111.7746099993575
 21
39.33316889620917
 31
0.0
  0
SPLINE
  5
22C
102
{ACAD_REACTORS
330
17EF
102
}
330
A
100
AcDbEntity
  8
0
370
    13
100
AcDbSpline
210
0.0
220
0.0
230
1.0
 70
     8
 71
     3
 72
     8
 73
     4
 74
     0
 42
0.0000000001
 43
0.0000000001
 40
0.0
 40
0.0
 40
0.0
 40
0.0
 40
1.0
 40
1.0
 40
1.0
 40
1.0
 10
-97.40362722461421
 20
39.24556688249085
 30
0.0
 10
-97.45933530129917
 20
39.30084970668204
 30
0.0
 10
-97.53503024519169
 20
39.33316889620918
 30
0.0
 10
-97.61625347150335
 20
39.33316889620918
 30
0.0
  0
LINE
  5
22B
102
{ACAD_REACTORS
330
17EF
102
}
330
A
100
AcDbEntity
  8
0
370
    13
100
AcDbLine
 10
-97.13274138607747
 20
38.9742557914603
 30
0.0
 11
-97.40362722461423
 21
39.24556688249085
 31
0.0
  0
SPLINE
  5
22A
102
{ACAD_REACTORS
330
17EF
102
}
330
A
100
AcDbEntity
  8
0
370
    13
100
AcDbSpline
210
0.0
220
0.0
230
1.0
 70
     8
 71
     3
 72
     8
 73
     4
 74
     0
 42
0.0000000001
 43
0.0000000001
 40
0.0
 40
0.0
 40
0.0
 40
0.0
 40
1.0
 40
1.0
 40
1.0
 40
1.0
 10
-97.13274138607745
 20
38.9742557914603
 30
0.0
 10
-97.05364442223467
 20
38.8960093326051
 30
0.0
 10
-96.92734443158256
 20
38.8960093326051
 30
0.0
 10
-96.84994847771491
 20
38.9742557914603
 30
0.0
  0
SPLINE
  5
227
102
{ACAD_REACTORS
330
17EF
102
}
330
A
100
AcDbEntity
  8
0
370
    13
100
AcDbSpline
210
0.0
220
0.0
230
1.0
 70
     8
 71
     3
 72
     8
 73
     4
 74
     0
 42
0.0000000001
 43
0.0000000001
 40
0.0
 40
0.0
 40
0.0
 40
0.0
 40
1.0
 40
1.0
 40
1.0
 40
1.0
 10
-117.8884651024078
 20
97.26701713359975
 30
0.0
 10
-118.5135862682619
 20
97.98059081815971
 30
0.0
 10
-119.5133548811346
 20
98.23829382938937
 30
0.0
 10
-120.4059598655753
 20
97.91425142913034
 30
0.0
  0
LINE
  5
226
102
{ACAD_REACTORS
330
17EF
102
}
330
A
100
AcDbEntity
  8
0
370
    13
100
AcDbLine
 10
-120.6645133817925
 20
97.81984537551153
 30
0.0
 11
-120.4059598655753
 21
97.91425142913031
 31
0.0
  0
SPLINE
  5
225
102
{ACAD_REACTORS
330
17EF
102
}
330
A
100
AcDbEntity
  8
0
370
    13
100
AcDbSpline
210
0.0
220
0.0
230
1.0
 70
     8
 71
     3
 72
     8
 73
     4
 74
     0
 42
0.0000000001
 43
0.0000000001
 40
0.0
 40
0.0
 40
0.0
 40
0.0
 40
1.0
 40
1.0
 40
1.0
 40
1.0
 10
-120.6645133817925
 20
97.81984537551153
 30
0.0
 10
-121.2909103051279
 20
97.59191003884636
 30
0.0
 10
-121.7263688587568
 20
97.01781917224568
 30
0.0
 10
-121.7773991580102
 20
96.353574776964
 30
0.0
  0
LINE
  5
224
102
{ACAD_REACTORS
330
17EF
102
}
330
A
100
AcDbEntity
  8
0
370
    13
100
AcDbLine
 10
-123.1926394573043
 20
77.99287310559288
 30
0.0
 11
-121.7773991580102
 21
96.35357477696402
 31
0.0
  0
SPLINE
  5
223
102
{ACAD_REACTORS
330
17EF
102
}
330
A
100
AcDbEntity
  8
0
370
    13
100
AcDbSpline
210
0.0
220
0.0
230
1.0
 70
     8
 71
     3
 72
     8
 73
     4
 74
     0
 42
0.0000000001
 43
0.0000000001
 40
0.0
 40
0.0
 40
0.0
 40
0.0
 40
1.0
 40
1.0
 40
1.0
 40
1.0
 10
-123.1926394573043
 20
77.99287310559288
 30
0.0
 10
-123.2521748064333
 20
77.23167114172975
 30
0.0
 10
-122.796304133103
 20
76.52490149707023
 30
0.0
 10
-122.0797536810866
 20
76.26464697087794
 30
0.0
  0
LINE
  5
222
102
{ACAD_REACTORS
330
17EF
102
}
330
A
100
AcDbEntity
  8
0
370
    13
100
AcDbLine
 10
-114.0207936714943
 20
73.33125526879533
 30
0.0
 11
-122.0797536810866
 21
76.26464697087792
 31
0.0
  0
SPLINE
  5
220
102
{ACAD_REACTORS
330
17EF
102
}
330
A
100
AcDbEntity
  8
0
370
    13
100
AcDbSpline
210
0.0
220
0.0
230
1.0
 70
     8
 71
     3
 72
     8
 73
     4
 74
     0
 42
0.0000000001
 43
0.0000000001
 40
0.0
 40
0.0
 40
0.0
 40
0.0
 40
1.0
 40
1.0
 40
1.0
 40
1.0
 10
-111.7405897998552
 20
74.8825763660985
 30
0.0
 10
-111.5977049619457
 20
80.11743456450917
 30
0.0
 10
-111.6857322281578
 20
85.35569478287007
 30
0.0
 10
-112.0046715984915
 20
90.58374894138028
 30
0.0
  0
SPLINE
  5
21F
102
{ACAD_REACTORS
330
17EF
102
}
330
A
100
AcDbEntity
  8
0
370
    13
100
AcDbSpline
210
0.0
220
0.0
230
1.0
 70
     8
 71
     3
 72
     8
 73
     4
 74
     0
 42
0.0000000001
 43
0.0000000001
 40
0.0
 40
0.0
 40
0.0
 40
0.0
 40
1.0
 40
1.0
 40
1.0
 40
1.0
 10
-112.0046715984915
 20
90.58374894138028
 30
0.0
 10
-112.1046059345294
 20
92.21416700252623
 30
0.0
 10
-113.0686533379248
 20
93.66853053124794
 30
0.0
 10
-114.5319471690158
 20
94.39401128563366
 30
0.0
  0
LINE
  5
21D
102
{ACAD_REACTORS
330
17EF
102
}
330
A
100
AcDbEntity
  8
0
370
    13
100
AcDbLine
 10
-114.2925300150187
 20
102.2662854504572
 30
0.0
 11
-119.0451518854848
 21
100.5372088107547
 31
0.0
  0
SPLINE
  5
21C
102
{ACAD_REACTORS
330
17EF
102
}
330
A
100
AcDbEntity
  8
0
370
    13
100
AcDbSpline
210
0.0
220
0.0
230
1.0
 70
     8
 71
     3
 72
     8
 73
     4
 74
     0
 42
0.0000000001
 43
0.0000000001
 40
0.0
 40
0.0
 40
0.0
 40
0.0
 40
1.0
 40
1.0
 40
1.0
 40
1.0
 10
-114.2925300150187
 20
102.2662854504572
 30
0.0
 10
-113.6287108722308
 20
102.5086793719108
 30
0.0
 10
-113.2230199931663
 20
103.1805783120805
 30
0.0
 10
-113.3187018042664
 20
103.879693411852
 30
0.0
  0
SPLINE
  5
21B
102
{ACAD_REACTORS
330
17EF
102
}
330
A
100
AcDbEntity
  8
0
370
    13
100
AcDbSpline
210
0.0
220
0.0
230
1.0
 70
     8
 71
     3
 72
     8
 73
     4
 74
     0
 42
0.0000000001
 43
0.0000000001
 40
0.0
 40
0.0
 40
0.0
 40
0.0
 40
1.0
 40
1.0
 40
1.0
 40
1.0
 10
-113.3187018042664
 20
103.879693411852
 30
0.0
 10
-114.0722492232415
 20
109.3807596713678
 30
0.0
 10
-115.0813733909774
 20
114.8580681964685
 30
0.0
 10
-116.3452238024864
 20
120.2638778973781
 30
0.0
  0
SPLINE
  5
21A
102
{ACAD_REACTORS
330
17EF
102
}
330
A
100
AcDbEntity
  8
0
370
    13
100
AcDbSpline
210
0.0
220
0.0
230
1.0
 70
     8
 71
     3
 72
     8
 73
     4
 74
     0
 42
0.0000000001
 43
0.0000000001
 40
0.0
 40
0.0
 40
0.0
 40
0.0
 40
1.0
 40
1.0
 40
1.0
 40
1.0
 10
-116.3452238024864
 20
120.2638778973781
 30
0.0
 10
-116.5046934876533
 20
120.9425808774482
 30
0.0
 10
-117.1089772813122
 20
121.4222656904301
 30
0.0
 10
-117.8055408661211
 20
121.4222656904301
 30
0.0
  0
LINE
  5
219
102
{ACAD_REACTORS
330
17EF
102
}
330
A
100
AcDbEntity
  8
0
370
    13
100
AcDbLine
 10
-118.4570276865894
 20
121.4222656904302
 30
0.0
 11
-117.8055408661211
 21
121.4222656904302
 31
0.0
  0
SPLINE
  5
218
102
{ACAD_REACTORS
330
17EF
102
}
330
A
100
AcDbEntity
  8
0
370
    13
100
AcDbSpline
210
0.0
220
0.0
230
1.0
 70
     8
 71
     3
 72
     8
 73
     4
 74
     0
 42
0.0000000001
 43
0.0000000001
 40
0.0
 40
0.0
 40
0.0
 40
0.0
 40
1.0
 40
1.0
 40
1.0
 40
1.0
 10
-118.4570276865894
 20
121.4222656904301
 30
0.0
 10
-119.2407680326228
 20
121.4222656904301
 30
0.0
 10
-119.8931053580786
 20
120.818407149265
 30
0.0
 10
-119.9534912121951
 20
120.0384940756756
 30
0.0
  0
LINE
  5
217
102
{ACAD_REACTORS
330
17EF
102
}
330
A
100
AcDbEntity
  8
0
370
    13
100
AcDbLine
 10
-121.3219537371737
 20
102.2637339354945
 30
0.0
 11
-119.9534912121951
 21
120.0384940756756
 31
0.0
  0
LINE
  5
215
102
{ACAD_REACTORS
330
17EF
102
}
330
A
100
AcDbEntity
  8
0
370
    13
100
AcDbLine
 10
-126.4470967921895
 20
31.88784823513899
 30
0.0
 11
-125.1173322441448
 21
49.12928534288569
 31
0.0
  0
LINE
  5
213
102
{ACAD_REACTORS
330
17EF
102
}
330
A
100
AcDbEntity
  8
0
370
    13
100
AcDbLine
 10
-122.3855102241132
 20
29.73436960664578
 30
0.0
 11
-124.4530878488632
 21
29.73436960664578
 31
0.0
  0
SPLINE
  5
212
102
{ACAD_REACTORS
330
17EF
102
}
330
A
100
AcDbEntity
  8
0
370
    13
100
AcDbSpline
210
0.0
220
0.0
230
1.0
 70
     8
 71
     3
 72
     8
 73
     4
 74
     0
 42
0.0000000001
 43
0.0000000001
 40
0.0
 40
0.0
 40
0.0
 40
0.0
 40
1.0
 40
1.0
 40
1.0
 40
1.0
 10
-122.3855102241132
 20
29.73436960664578
 30
0.0
 10
-120.5849911654559
 20
29.73436960664578
 30
0.0
 10
-119.0064539085509
 20
30.93698365905076
 30
0.0
 10
-118.5301711155192
 20
32.67286433865371
 30
0.0
  0
SPLINE
  5
211
102
{ACAD_REACTORS
330
17EF
102
}
330
A
100
AcDbEntity
  8
0
370
    13
100
AcDbSpline
210
0.0
220
0.0
230
1.0
 70
     8
 71
     3
 72
     8
 73
     4
 74
     0
 42
0.0000000001
 43
0.0000000001
 40
0.0
 40
0.0
 40
0.0
 40
0.0
 40
1.0
 40
1.0
 40
1.0
 40
1.0
 10
-118.5301711155192
 20
32.67286433865371
 30
0.0
 10
-116.8529752800577
 20
38.77098509943429
 30
0.0
 10
-115.6614177924909
 20
44.9898775684479
 30
0.0
 10
-114.9657047126697
 20
51.27510942649093
 30
0.0
  0
LINE
  5
20F
102
{ACAD_REACTORS
330
17EF
102
}
330
A
100
AcDbEntity
  8
0
370
    13
100
AcDbLine
 10
-124.0044464679271
 20
50.59640644642077
 30
0.0
 11
-117.2369782819395
 21
53.05946889038459
 31
0.0
  0
SPLINE
  5
20E
102
{ACAD_REACTORS
330
17EF
102
}
330
A
100
AcDbEntity
  8
0
370
    13
100
AcDbSpline
210
0.0
220
0.0
230
1.0
 70
     8
 71
     3
 72
     8
 73
     4
 74
     0
 42
0.0000000001
 43
0.0000000001
 40
0.0
 40
0.0
 40
0.0
 40
0.0
 40
1.0
 40
1.0
 40
1.0
 40
1.0
 10
-124.0044464679271
 20
50.59640644642079
 30
0.0
 10
-124.6316938962501
 20
50.36762060476805
 30
0.0
 10
-125.0658766923977
 20
49.79438024315493
 30
0.0
 10
-125.1173322441448
 20
49.12928534288569
 30
0.0
  0
LINE
  5
20A
102
{ACAD_REACTORS
330
17EF
102
}
330
A
100
AcDbEntity
  8
0
370
    13
100
AcDbLine
 10
-69.73712523189293
 20
105.9404669967016
 30
0.0
 11
-68.01612838957222
 21
83.60280400351598
 31
0.0
  0
LINE
  5
208
102
{ACAD_REACTORS
330
17EF
102
}
330
A
100
AcDbEntity
  8
0
370
    13
100
AcDbLine
 10
-75.08552584614239
 20
86.06416543750468
 30
0.0
 11
-72.57355936539406
 21
106.0093579006936
 31
0.0
  0
SPLINE
  5
207
102
{ACAD_REACTORS
330
17EF
102
}
330
A
100
AcDbEntity
  8
0
370
    13
100
AcDbSpline
210
0.0
220
0.0
230
1.0
 70
     8
 71
     3
 72
     8
 73
     4
 74
     0
 42
0.0000000001
 43
0.0000000001
 40
0.0
 40
0.0
 40
0.0
 40
0.0
 40
1.0
 40
1.0
 40
1.0
 40
1.0
 10
-75.08552584614239
 20
86.06416543750468
 30
0.0
 10
-75.17270260736694
 20
85.37185437763364
 30
0.0
 10
-74.83207535985053
 20
84.69570291252615
 30
0.0
 10
-74.22226328377246
 20
84.35635142249109
 30
0.0
  0
LINE
  5
205
102
{ACAD_REACTORS
330
17EF
102
}
330
A
100
AcDbEntity
  8
0
370
    13
100
AcDbLine
 10
-78.79627910685167
 20
56.59586862864479
 30
0.0
 11
-76.61133179381884
 21
73.95382491968674
 31
0.0
  0
SPLINE
  5
204
102
{ACAD_REACTORS
330
17EF
102
}
330
A
100
AcDbEntity
  8
0
370
    13
100
AcDbSpline
210
0.0
220
0.0
230
1.0
 70
     8
 71
     3
 72
     8
 73
     4
 74
     0
 42
0.0000000001
 43
0.0000000001
 40
0.0
 40
0.0
 40
0.0
 40
0.0
 40
1.0
 40
1.0
 40
1.0
 40
1.0
 10
-78.79627910685167
 20
56.59586862864479
 30
0.0
 10
-78.9723336392759
 20
55.20699398396494
 30
0.0
 10
-78.1630781436158
 20
53.88105670836424
 30
0.0
 10
-76.84649642287824
 20
53.4022224003699
 30
0.0
  0
LINE
  5
203
102
{ACAD_REACTORS
330
17EF
102
}
330
A
100
AcDbEntity
  8
0
370
    13
100
AcDbLine
 10
-67.84305062460444
 20
50.12522668331443
 30
0.0
 11
-76.84649642287824
 21
53.40222240036988
 31
0.0
  0
LINE
  5
201
102
{ACAD_REACTORS
330
17EF
102
}
330
A
100
AcDbEntity
  8
0
370
    13
100
AcDbLine
 10
-67.48413751985556
 20
76.71456410929536
 30
0.0
 11
-65.56794978289063
 21
51.85260231304182
 31
0.0
  0
LINE
  5
1FF
102
{ACAD_REACTORS
330
17EF
102
}
330
A
100
AcDbEntity
  8
0
370
    13
100
AcDbLine
 10
-74.66112385735165
 20
76.39817625392431
 30
0.0
 11
-69.76051411905071
 21
78.18168521283043
 31
0.0
  0
SPLINE
  5
1FE
102
{ACAD_REACTORS
330
17EF
102
}
330
A
100
AcDbEntity
  8
0
370
    13
100
AcDbSpline
210
0.0
220
0.0
230
1.0
 70
     8
 71
     3
 72
     8
 73
     4
 74
     0
 42
0.0000000001
 43
0.0000000001
 40
0.0
 40
0.0
 40
0.0
 40
0.0
 40
1.0
 40
1.0
 40
1.0
 40
1.0
 10
-74.66112385735164
 20
76.39817625392431
 30
0.0
 10
-75.71702579940311
 20
76.01289749456118
 30
0.0
 10
-76.47014796588447
 20
75.06968746336096
 30
0.0
 10
-76.61133179381886
 20
73.95382491968674
 30
0.0
  0
LINE
  5
1FD
102
{ACAD_REACTORS
330
17EF
102
}
330
A
100
AcDbEntity
  8
0
370
    13
100
AcDbLine
 10
-65.4216629250309
 20
46.05385930788115
 30
0.0
 11
-64.41253875729504
 21
32.96458754938561
 31
0.0
  0
SPLINE
  5
1FC
102
{ACAD_REACTORS
330
17EF
102
}
330
A
100
AcDbEntity
  8
0
370
    13
100
AcDbSpline
210
0.0
220
0.0
230
1.0
 70
     8
 71
     3
 72
     8
 73
     4
 74
     0
 42
0.0000000001
 43
0.0000000001
 40
0.0
 40
0.0
 40
0.0
 40
0.0
 40
1.0
 40
1.0
 40
1.0
 40
1.0
 10
-65.4216629250309
 20
46.05385930788115
 30
0.0
 10
-65.4731184767781
 20
46.71895420815039
 30
0.0
 10
-65.90857703040704
 20
47.29304507475108
 30
0.0
 10
-66.53369819626113
 20
47.52098041141623
 30
0.0
  0
LINE
  5
1FB
102
{ACAD_REACTORS
330
17EF
102
}
330
A
100
AcDbEntity
  8
0
370
    13
100
AcDbLine
 10
-75.53033995463447
 20
50.79457410852145
 30
0.0
 11
-66.53369819626111
 21
47.52098041141624
 31
0.0
  0
SPLINE
  5
1F9
102
{ACAD_REACTORS
330
17EF
102
}
330
A
100
AcDbEntity
  8
0
370
    13
100
AcDbSpline
210
0.0
220
0.0
230
1.0
 70
     8
 71
     3
 72
     8
 73
     4
 74
     0
 42
0.0000000001
 43
0.0000000001
 40
0.0
 40
0.0
 40
0.0
 40
0.0
 40
1.0
 40
1.0
 40
1.0
 40
1.0
 10
-79.55067703081437
 20
48.16566319198412
 30
0.0
 10
-79.88067296598632
 20
42.91549590379744
 30
0.0
 10
-79.76840630762881
 20
37.64831851585963
 30
0.0
 10
-79.21345180324817
 20
32.41771284238675
 30
0.0
  0
SPLINE
  5
1F8
102
{ACAD_REACTORS
330
17EF
102
}
330
A
100
AcDbEntity
  8
0
370
    13
100
AcDbSpline
210
0.0
220
0.0
230
1.0
 70
     8
 71
     3
 72
     8
 73
     4
 74
     0
 42
0.0000000001
 43
0.0000000001
 40
0.0
 40
0.0
 40
0.0
 40
0.0
 40
1.0
 40
1.0
 40
1.0
 40
1.0
 10
-79.21345180324817
 20
32.41771284238675
 30
0.0
 10
-79.05143060311866
 20
30.89190689471026
 30
0.0
 10
-77.76546706193312
 20
29.73436960664578
 30
0.0
 10
-76.2307308118873
 20
29.73436960664578
 30
0.0
  0
LINE
  5
1F7
102
{ACAD_REACTORS
330
17EF
102
}
330
A
100
AcDbEntity
  8
0
370
    13
100
AcDbLine
 10
-67.40291429354392
 20
29.73436960664578
 30
0.0
 11
-76.2307308118873
 21
29.73436960664578
 31
0.0
  0
SPLINE
  5
1F6
102
{ACAD_REACTORS
330
17EF
102
}
330
A
100
AcDbEntity
  8
0
370
    13
100
AcDbSpline
210
0.0
220
0.0
230
1.0
 70
     8
 71
     3
 72
    11
 73
     7
 74
     0
 42
0.0000000001
 43
0.0000000001
 40
0.0
 40
0.0
 40
0.0
 40
0.0
 40
1.0
 40
1.0
 40
1.0
 40
2.0
 40
2.0
 40
2.0
 40
2.0
 10
-67.40291429354392
 20
29.73436960664578
 30
0.0
 10
-65.74655583027753
 20
29.73436960664578
 30
0.0
 10
-64.40275794993815
 20
31.07731698199761
 30
0.0
 10
-64.40275794993815
 20
32.73325019277022
 30
0.0
 10
-64.40275794993815
 20
32.81064614663788
 30
0.0
 10
-64.40615996988836
 20
32.88804210050551
 30
0.0
 10
-64.41253875729502
 20
32.96458754938561
 30
0.0
  0
LINE
  5
1F5
102
{ACAD_REACTORS
330
17EF
102
}
330
A
100
AcDbEntity
  8
0
370
    13
100
AcDbLine
 10
-82.92292930647613
 20
34.51505814170123
 30
0.0
 11
-82.68606366744164
 21
31.91591489972838
 31
0.0
  0
SPLINE
  5
1F4
102
{ACAD_REACTORS
330
17EF
102
}
330
A
100
AcDbEntity
  8
0
370
    13
100
AcDbSpline
210
0.0
220
0.0
230
1.0
 70
     8
 71
     3
 72
     8
 73
     4
 74
     0
 42
0.0000000001
 43
0.0000000001
 40
0.0
 40
0.0
 40
0.0
 40
0.0
 40
1.0
 40
1.0
 40
1.0
 40
1.0
 10
-82.92292930647613
 20
34.51505814170123
 30
0.0
 10
-83.01776061258868
 20
35.54501968163222
 30
0.0
 10
-83.8810231749586
 20
36.33343780509717
 30
0.0
 10
-84.9148119873336
 20
36.33343780509717
 30
0.0
  0
LINE
  5
1F3
102
{ACAD_REACTORS
330
17EF
102
}
330
A
100
AcDbEntity
  8
0
370
    13
100
AcDbLine
 10
-112.4112129825435
 20
36.33343780509717
 30
0.0
 11
-84.9148119873336
 21
36.33343780509717
 31
0.0
  0
SPLINE
  5
1F2
102
{ACAD_REACTORS
330
17EF
102
}
330
A
100
AcDbEntity
  8
0
370
    13
100
AcDbSpline
210
0.0
220
0.0
230
1.0
 70
     8
 71
     3
 72
     8
 73
     4
 74
     0
 42
0.0000000001
 43
0.0000000001
 40
0.0
 40
0.0
 40
0.0
 40
0.0
 40
1.0
 40
1.0
 40
1.0
 40
1.0
 10
-112.4112129825435
 20
36.33343780509717
 30
0.0
 10
-113.3161502893037
 20
36.33343780509717
 30
0.0
 10
-114.1075451802251
 20
35.72532673899424
 30
0.0
 10
-114.341859304297
 20
34.85185811677363
 30
0.0
  0
LINE
  5
1F1
102
{ACAD_REACTORS
330
17EF
102
}
330
A
100
AcDbEntity
  8
0
370
    13
100
AcDbLine
 10
-115.037997636612
 20
32.2518643698132
 30
0.0
 11
-114.341859304297
 21
34.85185811677363
 31
0.0
  0
LINE
  5
1EF
102
{ACAD_REACTORS
330
17EF
102
}
330
A
100
AcDbEntity
  8
0
370
    13
100
AcDbLine
 10
-84.67879685328666
 20
29.73436960664578
 30
0.0
 11
-113.1060755573773
 21
29.73436960664578
 31
0.0
  0
SPLINE
  5
1EE
102
{ACAD_REACTORS
330
17EF
102
}
330
A
100
AcDbEntity
  8
0
370
    13
100
AcDbSpline
210
0.0
220
0.0
230
1.0
 70
     8
 71
     3
 72
    11
 73
     7
 74
     0
 42
0.0000000001
 43
0.0000000001
 40
0.0
 40
0.0
 40
0.0
 40
0.0
 40
1.0
 40
1.0
 40
1.0
 40
2.0
 40
2.0
 40
2.0
 40
2.0
 10
-84.67879685328666
 20
29.73436960664578
 30
0.0
 10
-83.57441612694445
 20
29.73436960664578
 30
0.0
 10
-82.67798387005985
 20
30.62995135854284
 30
0.0
 10
-82.67798387005985
 20
31.73390683239126
 30
0.0
 10
-82.67798387005985
 20
31.79514319149534
 30
0.0
 10
-82.68138589001006
 20
31.8546785406243
 30
0.0
 10
-82.68606366744162
 20
31.91591489972838
 30
0.0
  0
LINE
  5
1ED
102
{ACAD_REACTORS
330
17EF
102
}
330
A
100
AcDbEntity
  8
0
370
    13
100
AcDbLine
 10
-121.3483193917879
 20
73.8704754309062
 30
0.0
 11
-113.1043745474021
 21
70.86904332981906
 31
0.0
  0
LINE
  5
1EB
102
{ACAD_REACTORS
330
17EF
102
}
330
A
100
AcDbEntity
  8
0
370
    13
100
AcDbLine
 10
-124.9710453862851
 20
54.92887885303391
 30
0.0
 11
-123.6238454859955
 21
72.4033543273711
 31
0.0
  0
LINE
  5
1E9
102
{ACAD_REACTORS
330
17EF
102
}
330
A
100
AcDbEntity
  8
0
370
    13
100
AcDbLine
 10
-114.1496451771091
 20
56.31094945781334
 30
0.0
 11
-122.6955192920776
 21
53.20065271831897
 31
0.0
  0
SPLINE
  5
1E8
102
{ACAD_REACTORS
330
17EF
102
}
330
A
100
AcDbEntity
  8
0
370
    13
100
AcDbSpline
210
0.0
220
0.0
230
1.0
 70
     8
 71
     3
 72
     8
 73
     4
 74
     0
 42
0.0000000001
 43
0.0000000001
 40
0.0
 40
0.0
 40
0.0
 40
0.0
 40
1.0
 40
1.0
 40
1.0
 40
1.0
 10
-114.1496451771091
 20
56.31094945781334
 30
0.0
 10
-113.5504644133756
 20
56.52867873462781
 30
0.0
 10
-113.1243614146097
 20
57.06449687678845
 30
0.0
 10
-113.0452644507669
 20
57.69727258753054
 30
0.0
  0
SPLINE
  5
1E7
102
{ACAD_REACTORS
330
17EF
102
}
330
A
100
AcDbEntity
  8
0
370
    13
100
AcDbSpline
210
0.0
220
0.0
230
1.0
 70
     8
 71
     3
 72
     8
 73
     4
 74
     0
 42
0.0000000001
 43
0.0000000001
 40
0.0
 40
0.0
 40
0.0
 40
0.0
 40
1.0
 40
1.0
 40
1.0
 40
1.0
 10
-113.0452644507669
 20
57.69727258753054
 30
0.0
 10
-112.5698321627228
 20
61.50923594175907
 30
0.0
 10
-112.2160220878993
 20
65.33650838576362
 30
0.0
 10
-111.9880867512342
 20
69.17058486966862
 30
0.0
  0
SPLINE
  5
1E6
102
{ACAD_REACTORS
330
17EF
102
}
330
A
100
AcDbEntity
  8
0
370
    13
100
AcDbSpline
210
0.0
220
0.0
230
1.0
 70
     8
 71
     3
 72
     8
 73
     4
 74
     0
 42
0.0000000001
 43
0.0000000001
 40
0.0
 40
0.0
 40
0.0
 40
0.0
 40
1.0
 40
1.0
 40
1.0
 40
1.0
 10
-111.9880867512342
 20
69.17058486966862
 30
0.0
 10
-111.944285744375
 20
69.92158077368106
 30
0.0
 10
-112.3980301552364
 20
70.61219082357698
 30
0.0
 10
-113.1043745474021
 20
70.86904332981908
 30
0.0
  0
SPLINE
  5
10AF
102
{ACAD_REACTORS
330
17EF
102
}
330
A
100
AcDbEntity
  8
0
370
    13
100
AcDbSpline
210
0.0
220
0.0
230
1.0
 70
     8
 71
     3
 72
     8
 73
     4
 74
     0
 42
0.0000000001
 43
0.0000000001
 40
0.0
 40
0.0
 40
0.0
 40
0.0
 40
1.0
 40
1.0
 40
1.0
 40
1.0
 10
-114.4881461621567
 20
94.76823348015855
 30
0.0
 10
-113.1417967668546
 20
95.07526578066649
 30
0.0
 10
-112.3006473341612
 20
96.41651214604321
 30
0.0
 10
-112.6081048871629
 20
97.76201103635768
 30
0.0
  0
SPLINE
  5
10B0
102
{ACAD_REACTORS
330
17EF
102
}
330
A
100
AcDbEntity
  8
0
370
    13
100
AcDbSpline
210
0.0
220
0.0
230
1.0
 70
     8
 71
     3
 72
     8
 73
     4
 74
     0
 42
0.0000000001
 43
0.0000000001
 40
1.0
 40
1.0
 40
1.0
 40
1.0
 40
2.0
 40
2.0
 40
2.0
 40
2.0
 10
-112.6081048871629
 20
97.76201103635768
 30
0.0
 10
-112.9164129451522
 20
99.10750992667217
 30
0.0
 10
-114.2568088055413
 20
99.94950986435313
 30
0.0
 10
-115.6023076958558
 20
99.64162705885769
 30
0.0
  0
SPLINE
  5
10B1
102
{ACAD_REACTORS
330
17EF
102
}
330
A
100
AcDbEntity
  8
0
370
    13
100
AcDbSpline
210
0.0
220
0.0
230
1.0
 70
     8
 71
     3
 72
     8
 73
     4
 74
     0
 42
0.0000000001
 43
0.0000000001
 40
2.0
 40
2.0
 40
2.0
 40
2.0
 40
3.0
 40
3.0
 40
3.0
 40
3.0
 10
-115.6023076958558
 20
99.64162705885769
 30
0.0
 10
-116.6735187276833
 20
99.39583111745385
 30
0.0
 10
-117.4589600836918
 20
98.47983724585541
 30
0.0
 10
-117.5384823000283
 20
97.383536316895
 30
0.0
  0
SPLINE
  5
10B2
102
{ACAD_REACTORS
330
17EF
102
}
330
A
100
AcDbEntity
  8
0
370
    13
100
AcDbSpline
210
0.0
220
0.0
230
1.0
 70
     8
 71
     3
 72
     8
 73
     4
 74
     0
 42
0.0000000001
 43
0.0000000001
 40
0.0
 40
0.0
 40
0.0
 40
0.0
 40
1.0
 40
1.0
 40
1.0
 40
1.0
 10
-129.3877177866663
 20
26.271963802303
 30
0.0
 10
-129.4081299063677
 20
25.99725069132223
 30
0.0
 10
-129.2027329518728
 20
25.75825878981884
 30
0.0
 10
-128.9284450933859
 20
25.73699616512992
 30
0.0
  0
SPLINE
  5
10B3
102
{ACAD_REACTORS
330
17EF
102
}
330
A
100
AcDbEntity
  8
0
370
    13
100
AcDbSpline
210
0.0
220
0.0
230
1.0
 70
     8
 71
     3
 72
     8
 73
     4
 74
     0
 42
0.0000000001
 43
0.0000000001
 40
1.0
 40
1.0
 40
1.0
 40
1.0
 40
2.0
 40
2.0
 40
2.0
 40
2.0
 10
-128.9284450933859
 20
25.73699616512992
 30
0.0
 10
-128.9156875185725
 20
25.73614566014237
 30
0.0
 10
-128.9033551962529
 20
25.73529515515481
 30
0.0
 10
-128.8901723689458
 20
25.73529515515481
 30
0.0
  0
SPLINE
  5
10B5
102
{ACAD_REACTORS
330
17EF
102
}
330
A
100
AcDbEntity
  8
0
370
    13
100
AcDbSpline
210
0.0
220
0.0
230
1.0
 70
     8
 71
     3
 72
     8
 73
     4
 74
     0
 42
0.0000000001
 43
0.0000000001
 40
0.0
 40
0.0
 40
0.0
 40
0.0
 40
1.0
 40
1.0
 40
1.0
 40
1.0
 10
-113.72992096575
 20
41.75455659578273
 30
0.0
 10
-113.9612583223654
 20
40.67441526158588
 30
0.0
 10
-113.2770270598761
 20
39.61128402714019
 30
0.0
 10
-112.1960352206917
 20
39.37739515556213
 30
0.0
  0
SPLINE
  5
10B6
102
{ACAD_REACTORS
330
17EF
102
}
330
A
100
AcDbEntity
  8
0
370
    13
100
AcDbSpline
210
0.0
220
0.0
230
1.0
 70
     8
 71
     3
 72
     8
 73
     4
 74
     0
 42
0.0000000001
 43
0.0000000001
 40
1.0
 40
1.0
 40
1.0
 40
1.0
 40
2.0
 40
2.0
 40
2.0
 40
2.0
 10
-112.1960352206917
 20
39.37739515556213
 30
0.0
 10
-112.0578281602138
 20
39.34847798598518
 30
0.0
 10
-111.9166443322794
 20
39.33316889620918
 30
0.0
 10
-111.7746099993574
 20
39.33316889620918
 30
0.0
  0
SPLINE
  5
10B7
102
{ACAD_REACTORS
330
17EF
102
}
330
A
100
AcDbEntity
  8
0
370
    13
100
AcDbSpline
210
0.0
220
0.0
230
1.0
 70
     8
 71
     3
 72
     8
 73
     4
 74
     0
 42
0.0000000001
 43
0.0000000001
 40
0.0
 40
0.0
 40
0.0
 40
0.0
 40
1.0
 40
1.0
 40
1.0
 40
1.0
 10
-126.4470967921895
 20
31.887848235139
 30
0.0
 10
-126.5317220384515
 20
30.78729478124081
 30
0.0
 10
-125.7080079580029
 20
29.82537364031432
 30
0.0
 10
-124.6070292516109
 20
29.74032314155866
 30
0.0
  0
SPLINE
  5
10B8
102
{ACAD_REACTORS
330
17EF
102
}
330
A
100
AcDbEntity
  8
0
370
    13
100
AcDbSpline
210
0.0
220
0.0
230
1.0
 70
     8
 71
     3
 72
     8
 73
     4
 74
     0
 42
0.0000000001
 43
0.0000000001
 40
1.0
 40
1.0
 40
1.0
 40
1.0
 40
2.0
 40
2.0
 40
2.0
 40
2.0
 10
-124.6070292516109
 20
29.74032314155866
 30
0.0
 10
-124.5555736998638
 20
29.73692112160845
 30
0.0
 10
-124.5041181481166
 20
29.73436960664578
 30
0.0
 10
-124.4530878488632
 20
29.73436960664578
 30
0.0
  0
SPLINE
  5
10B9
102
{ACAD_REACTORS
330
17EF
102
}
330
A
100
AcDbEntity
  8
0
370
    13
100
AcDbSpline
210
0.0
220
0.0
230
1.0
 70
     8
 71
     3
 72
     8
 73
     4
 74
     0
 42
0.0000000001
 43
0.0000000001
 40
0.0
 40
0.0
 40
0.0
 40
0.0
 40
1.0
 40
1.0
 40
1.0
 40
1.0
 10
-115.037997636612
 20
32.25186436981322
 30
0.0
 10
-115.323767312431
 20
31.18533111541728
 30
0.0
 10
-114.6922673591703
 20
30.08903018645685
 30
0.0
 10
-113.6253088522805
 20
29.80326051063786
 30
0.0
  0
SPLINE
  5
10BA
102
{ACAD_REACTORS
330
17EF
102
}
330
A
100
AcDbEntity
  8
0
370
    13
100
AcDbSpline
210
0.0
220
0.0
230
1.0
 70
     8
 71
     3
 72
     8
 73
     4
 74
     0
 42
0.0000000001
 43
0.0000000001
 40
1.0
 40
1.0
 40
1.0
 40
1.0
 40
2.0
 40
2.0
 40
2.0
 40
2.0
 10
-113.6253088522805
 20
29.80326051063786
 30
0.0
 10
-113.4564836122506
 20
29.75733324130982
 30
0.0
 10
-113.2821300898015
 20
29.73436960664578
 30
0.0
 10
-113.1060755573772
 20
29.73436960664578
 30
0.0
  0
SPLINE
  5
10BB
102
{ACAD_REACTORS
330
17EF
102
}
330
A
100
AcDbEntity
  8
0
370
    13
100
AcDbSpline
210
0.0
220
0.0
230
1.0
 70
     8
 71
     3
 72
     8
 73
     4
 74
     0
 42
0.0000000001
 43
0.0000000001
 40
0.0
 40
0.0
 40
0.0
 40
0.0
 40
1.0
 40
1.0
 40
1.0
 40
1.0
 10
-124.9710453862851
 20
54.92887885303392
 30
0.0
 10
-125.0433383102274
 20
53.99247286173414
 30
0.0
 10
-124.3433727054684
 20
53.17513756869229
 30
0.0
 10
-123.4078172191562
 20
53.10369514973752
 30
0.0
  0
SPLINE
  5
10BC
102
{ACAD_REACTORS
330
17EF
102
}
330
A
100
AcDbEntity
  8
0
370
    13
100
AcDbSpline
210
0.0
220
0.0
230
1.0
 70
     8
 71
     3
 72
     8
 73
     4
 74
     0
 42
0.0000000001
 43
0.0000000001
 40
1.0
 40
1.0
 40
1.0
 40
1.0
 40
2.0
 40
2.0
 40
2.0
 40
2.0
 10
-123.4078172191562
 20
53.10369514973752
 30
0.0
 10
-123.1654232977025
 20
53.08413353502373
 30
0.0
 10
-122.9226041237551
 20
53.11730322953843
 30
0.0
 10
-122.6955192920775
 20
53.20065271831897
 30
0.0
  0
SPLINE
  5
10BD
102
{ACAD_REACTORS
330
17EF
102
}
330
A
100
AcDbEntity
  8
0
370
    13
100
AcDbSpline
210
0.0
220
0.0
230
1.0
 70
     8
 71
     3
 72
     8
 73
     4
 74
     0
 42
0.0000000001
 43
0.0000000001
 40
0.0
 40
0.0
 40
0.0
 40
0.0
 40
1.0
 40
1.0
 40
1.0
 40
1.0
 10
-114.9657047126697
 20
51.27510942649093
 30
0.0
 10
-114.8619431041878
 20
52.20811339784046
 30
0.0
 10
-115.5351178018388
 20
53.04841232554635
 30
0.0
 10
-116.4681217731884
 20
53.15217393402825
 30
0.0
  0
SPLINE
  5
10BE
102
{ACAD_REACTORS
330
17EF
102
}
330
A
100
AcDbEntity
  8
0
370
    13
100
AcDbSpline
210
0.0
220
0.0
230
1.0
 70
     8
 71
     3
 72
     8
 73
     4
 74
     0
 42
0.0000000001
 43
0.0000000001
 40
1.0
 40
1.0
 40
1.0
 40
1.0
 40
2.0
 40
2.0
 40
2.0
 40
2.0
 10
-116.4681217731884
 20
53.15217393402825
 30
0.0
 10
-116.7283762993807
 20
53.18024059861762
 30
0.0
 10
-116.9903318355481
 20
53.14877191407804
 30
0.0
 10
-117.2369782819395
 20
53.05946889038459
 30
0.0
  0
SPLINE
  5
10BF
102
{ACAD_REACTORS
330
17EF
102
}
330
A
100
AcDbEntity
  8
0
370
    13
100
AcDbSpline
210
0.0
220
0.0
230
1.0
 70
     8
 71
     3
 72
     8
 73
     4
 74
     0
 42
0.0000000001
 43
0.0000000001
 40
0.0
 40
0.0
 40
0.0
 40
0.0
 40
1.0
 40
1.0
 40
1.0
 40
1.0
 10
-121.3483193917879
 20
73.87047543090618
 30
0.0
 10
-122.2302930638841
 20
74.19111581121502
 30
0.0
 10
-123.2058222846115
 20
73.73609564287225
 30
0.0
 10
-123.5260374124265
 20
72.85412197077609
 30
0.0
  0
SPLINE
  5
10C0
102
{ACAD_REACTORS
330
17EF
102
}
330
A
100
AcDbEntity
  8
0
370
    13
100
AcDbSpline
210
0.0
220
0.0
230
1.0
 70
     8
 71
     3
 72
     8
 73
     4
 74
     0
 42
0.0000000001
 43
0.0000000001
 40
1.0
 40
1.0
 40
1.0
 40
1.0
 40
2.0
 40
2.0
 40
2.0
 40
2.0
 10
-123.5260374124265
 20
72.85412197077609
 30
0.0
 10
-123.5791939741488
 20
72.70868561790393
 30
0.0
 10
-123.6127889211573
 20
72.55729573011887
 30
0.0
 10
-123.6238454859955
 20
72.40335432737111
 30
0.0
  0
SPLINE
  5
10C1
102
{ACAD_REACTORS
330
17EF
102
}
330
A
100
AcDbEntity
  8
0
370
    13
100
AcDbSpline
210
0.0
220
0.0
230
1.0
 70
     8
 71
     3
 72
     8
 73
     4
 74
     0
 42
0.0000000001
 43
0.0000000001
 40
0.0
 40
0.0
 40
0.0
 40
0.0
 40
1.0
 40
1.0
 40
1.0
 40
1.0
 10
-114.0207936714944
 20
73.33125526879533
 30
0.0
 10
-113.1383947469044
 20
73.00976438349895
 30
0.0
 10
-112.1637160311646
 20
73.46478455184172
 30
0.0
 10
-111.8435009033496
 20
74.34760872892542
 30
0.0
  0
SPLINE
  5
10C2
102
{ACAD_REACTORS
330
17EF
102
}
330
A
100
AcDbEntity
  8
0
370
    13
100
AcDbSpline
210
0.0
220
0.0
230
1.0
 70
     8
 71
     3
 72
     8
 73
     4
 74
     0
 42
0.0000000001
 43
0.0000000001
 40
1.0
 40
1.0
 40
1.0
 40
1.0
 40
2.0
 40
2.0
 40
2.0
 40
2.0
 10
-111.8435009033496
 20
74.34760872892542
 30
0.0
 10
-111.7805635342703
 20
74.51856023142429
 30
0.0
 10
-111.744842324793
 20
74.69971779377385
 30
0.0
 10
-111.7405897998552
 20
74.8825763660985
 30
0.0
  0
SPLINE
  5
10C3
102
{ACAD_REACTORS
330
17EF
102
}
330
A
100
AcDbEntity
  8
0
370
    13
100
AcDbSpline
210
0.0
220
0.0
230
1.0
 70
     8
 71
     3
 72
     8
 73
     4
 74
     0
 42
0.0000000001
 43
0.0000000001
 40
0.0
 40
0.0
 40
0.0
 40
0.0
 40
1.0
 40
1.0
 40
1.0
 40
1.0
 10
-121.3219537371737
 20
102.2637339354945
 30
0.0
 10
-121.394246661116
 20
101.3290289541699
 30
0.0
 10
-120.6938558038632
 20
100.511693661128
 30
0.0
 10
-119.7574498125634
 20
100.4394007371857
 30
0.0
  0
SPLINE
  5
10C4
102
{ACAD_REACTORS
330
17EF
102
}
330
A
100
AcDbEntity
  8
0
370
    13
100
AcDbSpline
210
0.0
220
0.0
230
1.0
 70
     8
 71
     3
 72
     8
 73
     4
 74
     0
 42
0.0000000001
 43
0.0000000001
 40
1.0
 40
1.0
 40
1.0
 40
1.0
 40
2.0
 40
2.0
 40
2.0
 40
2.0
 10
-119.7574498125634
 20
100.4394007371857
 30
0.0
 10
-119.5163316485911
 20
100.4206896274594
 30
0.0
 10
-119.2739377271375
 20
100.4538593219741
 30
0.0
 10
-119.0451518854847
 20
100.5372088107547
 30
0.0
  0
SPLINE
  5
10C5
102
{ACAD_REACTORS
330
17EF
102
}
330
A
100
AcDbEntity
  8
0
370
    13
100
AcDbSpline
210
0.0
220
0.0
230
1.0
 70
     8
 71
     3
 72
     8
 73
     4
 74
     0
 42
0.0000000001
 43
0.0000000001
 40
0.0
 40
0.0
 40
0.0
 40
0.0
 40
1.0
 40
1.0
 40
1.0
 40
1.0
 10
-114.4881461621567
 20
94.76823348015855
 30
0.0
 10
-114.5944592856013
 20
94.74356883551942
 30
0.0
 10
-114.6624996846058
 20
94.63640520708731
 30
0.0
 10
-114.6382602924604
 20
94.52839107366761
 30
0.0
  0
SPLINE
  5
10C6
102
{ACAD_REACTORS
330
17EF
102
}
330
A
100
AcDbEntity
  8
0
370
    13
100
AcDbSpline
210
0.0
220
0.0
230
1.0
 70
     8
 71
     3
 72
     8
 73
     4
 74
     0
 42
0.0000000001
 43
0.0000000001
 40
1.0
 40
1.0
 40
1.0
 40
1.0
 40
2.0
 40
2.0
 40
2.0
 40
2.0
 10
-114.6382602924604
 20
94.52839107366761
 30
0.0
 10
-114.6242269601657
 20
94.47055673451378
 30
0.0
 10
-114.5851037307381
 20
94.42037694024794
 30
0.0
 10
-114.5319471690158
 20
94.39401128563366
 30
0.0
  0
SPLINE
  5
10C7
102
{ACAD_REACTORS
330
17EF
102
}
330
A
100
AcDbEntity
  8
0
370
    13
100
AcDbSpline
210
0.0
220
0.0
230
1.0
 70
     8
 71
     3
 72
     8
 73
     4
 74
     0
 42
0.0000000001
 43
0.0000000001
 40
0.0
 40
0.0
 40
0.0
 40
0.0
 40
1.0
 40
1.0
 40
1.0
 40
1.0
 10
-117.8884651024078
 20
97.26701713359975
 30
0.0
 10
-117.8153216734779
 20
97.18281713983168
 30
0.0
 10
-117.6890216828258
 20
97.17431208995609
 30
0.0
 10
-117.6052469415515
 20
97.24745551888595
 30
0.0
  0
SPLINE
  5
10C8
102
{ACAD_REACTORS
330
17EF
102
}
330
A
100
AcDbEntity
  8
0
370
    13
100
AcDbSpline
210
0.0
220
0.0
230
1.0
 70
     8
 71
     3
 72
     8
 73
     4
 74
     0
 42
0.0000000001
 43
0.0000000001
 40
1.0
 40
1.0
 40
1.0
 40
1.0
 40
2.0
 40
2.0
 40
2.0
 40
2.0
 10
-117.6052469415515
 20
97.24745551888595
 30
0.0
 10
-117.5661237121239
 20
97.28232622337579
 30
0.0
 10
-117.5418843199785
 20
97.3308050076665
 30
0.0
 10
-117.5384823000283
 20
97.383536316895
 30
0.0
  0
SPLINE
  5
10C9
102
{ACAD_REACTORS
330
17EF
102
}
330
A
100
AcDbEntity
  8
0
370
    13
100
AcDbSpline
210
0.0
220
0.0
230
1.0
 70
     8
 71
     3
 72
     8
 73
     4
 74
     0
 42
0.0000000001
 43
0.0000000001
 40
0.0
 40
0.0
 40
0.0
 40
0.0
 40
1.0
 40
1.0
 40
1.0
 40
1.0
 10
-120.391076028293
 20
123.4600756406157
 30
0.0
 10
-120.4119134004882
 20
123.1845120246474
 30
0.0
 10
-120.2065164459933
 20
122.9446696181564
 30
0.0
 10
-119.9313780825187
 20
122.9234069934675
 30
0.0
  0
SPLINE
  5
10CA
102
{ACAD_REACTORS
330
17EF
102
}
330
A
100
AcDbEntity
  8
0
370
    13
100
AcDbSpline
210
0.0
220
0.0
230
1.0
 70
     8
 71
     3
 72
     8
 73
     4
 74
     0
 42
0.0000000001
 43
0.0000000001
 40
1.0
 40
1.0
 40
1.0
 40
1.0
 40
2.0
 40
2.0
 40
2.0
 40
2.0
 10
-119.9313780825187
 20
122.9234069934675
 30
0.0
 10
-119.9177700027178
 20
122.9217059834924
 30
0.0
 10
-119.9054376803982
 20
122.9217059834924
 30
0.0
 10
-119.8931053580786
 20
122.9217059834924
 30
0.0
  0
SPLINE
  5
10CB
102
{ACAD_REACTORS
330
17EF
102
}
330
A
100
AcDbEntity
  8
0
370
    13
100
AcDbSpline
210
0.0
220
0.0
230
1.0
 70
     8
 71
     3
 72
     8
 73
     4
 74
     0
 42
0.0000000001
 43
0.0000000001
 40
0.0
 40
0.0
 40
0.0
 40
0.0
 40
1.0
 40
1.0
 40
1.0
 40
1.0
 10
-120.04406999337
 20
127.9507419749143
 30
0.0
 10
-120.0534255482331
 20
127.840176326532
 30
0.0
 10
-119.9709265644401
 20
127.7440692629381
 30
0.0
 10
-119.8603609160577
 20
127.7355642130625
 30
0.0
  0
SPLINE
  5
10CC
102
{ACAD_REACTORS
330
17EF
102
}
330
A
100
AcDbEntity
  8
0
370
    13
100
AcDbSpline
210
0.0
220
0.0
230
1.0
 70
     8
 71
     3
 72
     8
 73
     4
 74
     0
 42
0.0000000001
 43
0.0000000001
 40
1.0
 40
1.0
 40
1.0
 40
1.0
 40
2.0
 40
2.0
 40
2.0
 40
2.0
 10
-119.8603609160577
 20
127.7355642130625
 30
0.0
 10
-119.8556831386262
 20
127.7355642130625
 30
0.0
 10
-119.8497296037133
 20
127.734713708075
 30
0.0
 10
-119.844626573788
 20
127.734713708075
 30
0.0
  0
SPLINE
  5
10D2
102
{ACAD_REACTORS
330
17EF
102
}
330
A
100
AcDbEntity
  8
0
370
    13
100
AcDbSpline
210
0.0
220
0.0
230
1.0
 70
     8
 71
     3
 72
     8
 73
     4
 74
     0
 42
0.0000000001
 43
0.0000000001
 40
0.0
 40
0.0
 40
0.0
 40
0.0
 40
1.0
 40
1.0
 40
1.0
 40
1.0
 10
-76.22095000453041
 20
94.65001328688819
 30
0.0
 10
-76.82098127325154
 20
94.3072597769029
 30
0.0
 10
-77.03020550019046
 20
93.54435680306467
 30
0.0
 10
-76.68787724269894
 20
92.9447507868373
 30
0.0
  0
SPLINE
  5
10D3
102
{ACAD_REACTORS
330
17EF
102
}
330
A
100
AcDbEntity
  8
0
370
    13
100
AcDbSpline
210
0.0
220
0.0
230
1.0
 70
     8
 71
     3
 72
     8
 73
     4
 74
     0
 42
0.0000000001
 43
0.0000000001
 40
1.0
 40
1.0
 40
1.0
 40
1.0
 40
2.0
 40
2.0
 40
2.0
 40
2.0
 10
-76.68787724269894
 20
92.9447507868373
 30
0.0
 10
-76.62876714606376
 20
92.84183968334295
 30
0.0
 10
-76.55732472710903
 20
92.74743362972419
 30
0.0
 10
-76.47099847087203
 20
92.66578515091875
 30
0.0
  0
SPLINE
  5
10D5
102
{ACAD_REACTORS
330
17EF
102
}
330
A
100
AcDbEntity
  8
0
370
    13
100
AcDbSpline
210
0.0
220
0.0
230
1.0
 70
     8
 71
     3
 72
     8
 73
     4
 74
     0
 42
0.0000000001
 43
0.0000000001
 40
0.0
 40
0.0
 40
0.0
 40
0.0
 40
1.0
 40
1.0
 40
1.0
 40
1.0
 10
-74.24607742342406
 20
83.99573730776712
 30
0.0
 10
-75.52863894465935
 20
83.48543431523317
 30
0.0
 10
-76.15418536300719
 20
82.03192129149901
 30
0.0
 10
-75.6430318654857
 20
80.7493597702637
 30
0.0
  0
SPLINE
  5
10D6
102
{ACAD_REACTORS
330
17EF
102
}
330
A
100
AcDbEntity
  8
0
370
    13
100
AcDbSpline
210
0.0
220
0.0
230
1.0
 70
     8
 71
     3
 72
     8
 73
     4
 74
     0
 42
0.0000000001
 43
0.0000000001
 40
1.0
 40
1.0
 40
1.0
 40
1.0
 40
2.0
 40
2.0
 40
2.0
 40
2.0
 10
-75.6430318654857
 20
80.7493597702637
 30
0.0
 10
-75.13230362045799
 20
79.4667982490284
 30
0.0
 10
-73.6796411017114
 20
78.84082657818675
 30
0.0
 10
-72.39707958047609
 20
79.3511295707207
 30
0.0
  0
SPLINE
  5
10D7
102
{ACAD_REACTORS
330
17EF
102
}
330
A
100
AcDbEntity
  8
0
370
    13
100
AcDbSpline
210
0.0
220
0.0
230
1.0
 70
     8
 71
     3
 72
     8
 73
     4
 74
     0
 42
0.0000000001
 43
0.0000000001
 40
2.0
 40
2.0
 40
2.0
 40
2.0
 40
3.0
 40
3.0
 40
3.0
 40
3.0
 10
-72.39707958047609
 20
79.3511295707207
 30
0.0
 10
-71.40921803742911
 20
79.74491337995939
 30
0.0
 10
-70.77771808416838
 20
80.71874159071166
 30
0.0
 10
-70.82322010100266
 20
81.78017181518226
 30
0.0
  0
SPLINE
  5
10D8
102
{ACAD_REACTORS
330
17EF
102
}
330
A
100
AcDbEntity
  8
0
370
    13
100
AcDbSpline
210
0.0
220
0.0
230
1.0
 70
     8
 71
     3
 72
     8
 73
     4
 74
     0
 42
0.0000000001
 43
0.0000000001
 40
0.0
 40
0.0
 40
0.0
 40
0.0
 40
1.0
 40
1.0
 40
1.0
 40
1.0
 10
-79.34528007631945
 20
69.84928784973876
 30
0.0
 10
-79.94446084005303
 20
69.50738484474101
 30
0.0
 10
-80.15411031948572
 20
68.74448187090277
 30
0.0
 10
-79.81178206199423
 20
68.14402534968782
 30
0.0
  0
SPLINE
  5
10D9
102
{ACAD_REACTORS
330
17EF
102
}
330
A
100
AcDbEntity
  8
0
370
    13
100
AcDbSpline
210
0.0
220
0.0
230
1.0
 70
     8
 71
     3
 72
     8
 73
     4
 74
     0
 42
0.0000000001
 43
0.0000000001
 40
1.0
 40
1.0
 40
1.0
 40
1.0
 40
2.0
 40
2.0
 40
2.0
 40
2.0
 10
-79.81178206199423
 20
68.14402534968782
 30
0.0
 10
-79.75267196535902
 20
68.04111424619349
 30
0.0
 10
-79.67952853642917
 20
67.94755869756227
 30
0.0
 10
-79.59405278517976
 20
67.86505971376929
 30
0.0
  0
SPLINE
  5
10DA
102
{ACAD_REACTORS
330
17EF
102
}
330
A
100
AcDbEntity
  8
0
370
    13
100
AcDbSpline
210
0.0
220
0.0
230
1.0
 70
     8
 71
     3
 72
     8
 73
     4
 74
     0
 42
0.0000000001
 43
0.0000000001
 40
0.0
 40
0.0
 40
0.0
 40
0.0
 40
1.0
 40
1.0
 40
1.0
 40
1.0
 10
-81.21936781640034
 20
54.96970309243664
 30
0.0
 10
-81.81854858013393
 20
54.62780008743891
 30
0.0
 10
-82.02819805956663
 20
53.86404660861311
 30
0.0
 10
-81.68629505456888
 20
53.26444059238572
 30
0.0
  0
SPLINE
  5
10DB
102
{ACAD_REACTORS
330
17EF
102
}
330
A
100
AcDbEntity
  8
0
370
    13
100
AcDbSpline
210
0.0
220
0.0
230
1.0
 70
     8
 71
     3
 72
     8
 73
     4
 74
     0
 42
0.0000000001
 43
0.0000000001
 40
1.0
 40
1.0
 40
1.0
 40
1.0
 40
2.0
 40
2.0
 40
2.0
 40
2.0
 10
-81.68629505456888
 20
53.26444059238572
 30
0.0
 10
-81.62675970543991
 20
53.16237999387893
 30
0.0
 10
-81.55361627651005
 20
53.06797394026014
 30
0.0
 10
-81.46856577775443
 20
52.98462445147961
 30
0.0
  0
SPLINE
  5
10DC
102
{ACAD_REACTORS
330
17EF
102
}
330
A
100
AcDbEntity
  8
0
370
    13
100
AcDbSpline
210
0.0
220
0.0
230
1.0
 70
     8
 71
     3
 72
     8
 73
     4
 74
     0
 42
0.0000000001
 43
0.0000000001
 40
0.0
 40
0.0
 40
0.0
 40
0.0
 40
1.0
 40
1.0
 40
1.0
 40
1.0
 10
-75.53033995463447
 20
50.79457410852146
 30
0.0
 10
-77.08761458685057
 20
51.36186093522169
 30
0.0
 10
-78.80861142917126
 20
50.55898422696827
 30
0.0
 10
-79.37462249839014
 20
49.00256009973978
 30
0.0
  0
SPLINE
  5
10DD
102
{ACAD_REACTORS
330
17EF
102
}
330
A
100
AcDbEntity
  8
0
370
    13
100
AcDbSpline
210
0.0
220
0.0
230
1.0
 70
     8
 71
     3
 72
     8
 73
     4
 74
     0
 42
0.0000000001
 43
0.0000000001
 40
1.0
 40
1.0
 40
1.0
 40
1.0
 40
2.0
 40
2.0
 40
2.0
 40
2.0
 10
-79.37462249839014
 20
49.00256009973978
 30
0.0
 10
-79.47328107694672
 20
48.73295001868434
 30
0.0
 10
-79.5323911735819
 20
48.45058236281556
 30
0.0
 10
-79.55067703081437
 20
48.16566319198412
 30
0.0
  0
SPLINE
  5
10DE
102
{ACAD_REACTORS
330
17EF
102
}
330
A
100
AcDbEntity
  8
0
370
    13
100
AcDbSpline
210
0.0
220
0.0
230
1.0
 70
     8
 71
     3
 72
     8
 73
     4
 74
     0
 42
0.0000000001
 43
0.0000000001
 40
0.0
 40
0.0
 40
0.0
 40
0.0
 40
1.0
 40
1.0
 40
1.0
 40
1.0
 10
-79.97040124217353
 20
64.88914276230886
 30
0.0
 10
-80.56958200590711
 20
64.54723975731112
 30
0.0
 10
-80.77795572785847
 20
63.78433678347288
 30
0.0
 10
-80.43562747036698
 20
63.18388026225796
 30
0.0
  0
SPLINE
  5
10DF
102
{ACAD_REACTORS
330
17EF
102
}
330
A
100
AcDbEntity
  8
0
370
    13
100
AcDbSpline
210
0.0
220
0.0
230
1.0
 70
     8
 71
     3
 72
     8
 73
     4
 74
     0
 42
0.0000000001
 43
0.0000000001
 40
1.0
 40
1.0
 40
1.0
 40
1.0
 40
2.0
 40
2.0
 40
2.0
 40
2.0
 10
-80.43562747036698
 20
63.18388026225796
 30
0.0
 10
-80.37821838370689
 20
63.08181966375116
 30
0.0
 10
-80.30464970228324
 20
62.98741361013239
 30
0.0
 10
-80.21959920352758
 20
62.90576513132695
 30
0.0
  0
SPLINE
  5
10E0
102
{ACAD_REACTORS
330
17EF
102
}
330
A
100
AcDbEntity
  8
0
370
    13
100
AcDbSpline
210
0.0
220
0.0
230
1.0
 70
     8
 71
     3
 72
     8
 73
     4
 74
     0
 42
0.0000000001
 43
0.0000000001
 40
0.0
 40
0.0
 40
0.0
 40
0.0
 40
1.0
 40
1.0
 40
1.0
 40
1.0
 10
-80.59382139805247
 20
59.92984817986652
 30
0.0
 10
-81.19512842425496
 20
59.58709466988124
 30
0.0
 10
-81.40307689371255
 20
58.82334119105543
 30
0.0
 10
-81.06074863622103
 20
58.22458567981562
 30
0.0
  0
SPLINE
  5
10E1
102
{ACAD_REACTORS
330
17EF
102
}
330
A
100
AcDbEntity
  8
0
370
    13
100
AcDbSpline
210
0.0
220
0.0
230
1.0
 70
     8
 71
     3
 72
     8
 73
     4
 74
     0
 42
0.0000000001
 43
0.0000000001
 40
1.0
 40
1.0
 40
1.0
 40
1.0
 40
2.0
 40
2.0
 40
2.0
 40
2.0
 10
-81.06074863622103
 20
58.22458567981562
 30
0.0
 10
-81.00333954956097
 20
58.12167457632127
 30
0.0
 10
-80.93019612063111
 20
58.02726852270248
 30
0.0
 10
-80.84472036938166
 20
57.94476953890949
 30
0.0
  0
SPLINE
  5
10E2
102
{ACAD_REACTORS
330
17EF
102
}
330
A
100
AcDbEntity
  8
0
370
    13
100
AcDbSpline
210
0.0
220
0.0
230
1.0
 70
     8
 71
     3
 72
     8
 73
     4
 74
     0
 42
0.0000000001
 43
0.0000000001
 40
0.0
 40
0.0
 40
0.0
 40
0.0
 40
1.0
 40
1.0
 40
1.0
 40
1.0
 10
-78.09546299710508
 20
79.76957802459853
 30
0.0
 10
-78.69549426582624
 20
79.4276750196008
 30
0.0
 10
-78.90344273528381
 20
78.66392154077501
 30
0.0
 10
-78.56281548776739
 20
78.06516602953518
 30
0.0
  0
SPLINE
  5
10E3
102
{ACAD_REACTORS
330
17EF
102
}
330
A
100
AcDbEntity
  8
0
370
    13
100
AcDbSpline
210
0.0
220
0.0
230
1.0
 70
     8
 71
     3
 72
     8
 73
     4
 74
     0
 42
0.0000000001
 43
0.0000000001
 40
1.0
 40
1.0
 40
1.0
 40
1.0
 40
2.0
 40
2.0
 40
2.0
 40
2.0
 10
-78.56281548776739
 20
78.06516602953518
 30
0.0
 10
-78.50285488614467
 20
77.96225492604083
 30
0.0
 10
-78.42971145721479
 20
77.86784887242204
 30
0.0
 10
-78.34508621095292
 20
77.78534988862907
 30
0.0
  0
SPLINE
  5
10E4
102
{ACAD_REACTORS
330
17EF
102
}
330
A
100
AcDbEntity
  8
0
370
    13
100
AcDbSpline
210
0.0
220
0.0
230
1.0
 70
     8
 71
     3
 72
     8
 73
     4
 74
     0
 42
0.0000000001
 43
0.0000000001
 40
0.0
 40
0.0
 40
0.0
 40
0.0
 40
1.0
 40
1.0
 40
1.0
 40
1.0
 10
-78.72058416295913
 20
74.80943293716865
 30
0.0
 10
-79.32061543168029
 20
74.46667942718334
 30
0.0
 10
-79.52898915363167
 20
73.70377645334511
 30
0.0
 10
-79.18666089614015
 20
73.10502094210528
 30
0.0
  0
SPLINE
  5
10E5
102
{ACAD_REACTORS
330
17EF
102
}
330
A
100
AcDbEntity
  8
0
370
    13
100
AcDbSpline
210
0.0
220
0.0
230
1.0
 70
     8
 71
     3
 72
     8
 73
     4
 74
     0
 42
0.0000000001
 43
0.0000000001
 40
1.0
 40
1.0
 40
1.0
 40
1.0
 40
2.0
 40
2.0
 40
2.0
 40
2.0
 10
-79.18666089614015
 20
73.10502094210528
 30
0.0
 10
-79.12925180948008
 20
73.00125933362339
 30
0.0
 10
-79.0561083805502
 20
72.90685328000461
 30
0.0
 10
-78.97063262930078
 20
72.82520480119919
 30
0.0
  0
SPLINE
  5
10E6
102
{ACAD_REACTORS
330
17EF
102
}
330
A
100
AcDbEntity
  8
0
370
    13
100
AcDbSpline
210
0.0
220
0.0
230
1.0
 70
     8
 71
     3
 72
     8
 73
     4
 74
     0
 42
0.0000000001
 43
0.0000000001
 40
0.0
 40
0.0
 40
0.0
 40
0.0
 40
1.0
 40
1.0
 40
1.0
 40
1.0
 10
-77.47161758873232
 20
84.72887260704087
 30
0.0
 10
-78.06994784747837
 20
84.3878201070307
 30
0.0
 10
-78.28002257940484
 20
83.62406662820488
 30
0.0
 10
-77.93684381692577
 20
83.02446061197752
 30
0.0
  0
SPLINE
  5
10E7
102
{ACAD_REACTORS
330
17EF
102
}
330
A
100
AcDbEntity
  8
0
370
    13
100
AcDbSpline
210
0.0
220
0.0
230
1.0
 70
     8
 71
     3
 72
     8
 73
     4
 74
     0
 42
0.0000000001
 43
0.0000000001
 40
1.0
 40
1.0
 40
1.0
 40
1.0
 40
2.0
 40
2.0
 40
2.0
 40
2.0
 10
-77.93684381692577
 20
83.02446061197752
 30
0.0
 10
-77.87943473026571
 20
82.92154950848317
 30
0.0
 10
-77.80629130133583
 20
82.82799395985195
 30
0.0
 10
-77.72166605507395
 20
82.74549497605894
 30
0.0
  0
SPLINE
  5
10E8
102
{ACAD_REACTORS
330
17EF
102
}
330
A
100
AcDbEntity
  8
0
370
    13
100
AcDbSpline
210
0.0
220
0.0
230
1.0
 70
     8
 71
     3
 72
     8
 73
     4
 74
     0
 42
0.0000000001
 43
0.0000000001
 40
0.0
 40
0.0
 40
0.0
 40
0.0
 40
1.0
 40
1.0
 40
1.0
 40
1.0
 10
-74.24607742342406
 20
83.99573730776712
 30
0.0
 10
-74.14316631992971
 20
84.03656154716982
 30
0.0
 10
-74.09341177815766
 20
84.15308073046508
 30
0.0
 10
-74.13423601756035
 20
84.2559918339594
 30
0.0
  0
SPLINE
  5
10E9
102
{ACAD_REACTORS
330
17EF
102
}
330
A
100
AcDbEntity
  8
0
370
    13
100
AcDbSpline
210
0.0
220
0.0
230
1.0
 70
     8
 71
     3
 72
     8
 73
     4
 74
     0
 42
0.0000000001
 43
0.0000000001
 40
1.0
 40
1.0
 40
1.0
 40
1.0
 40
2.0
 40
2.0
 40
2.0
 40
2.0
 10
-74.13423601756035
 20
84.2559918339594
 30
0.0
 10
-74.15082086481771
 20
84.29851708333723
 30
0.0
 10
-74.18228954935729
 20
84.33338778782704
 30
0.0
 10
-74.22226328377246
 20
84.35635142249109
 30
0.0
  0
SPLINE
  5
10EA
102
{ACAD_REACTORS
330
17EF
102
}
330
A
100
AcDbEntity
  8
0
370
    13
100
AcDbSpline
210
0.0
220
0.0
230
1.0
 70
     8
 71
     3
 72
     8
 73
     4
 74
     0
 42
0.0000000001
 43
0.0000000001
 40
0.0
 40
0.0
 40
0.0
 40
0.0
 40
1.0
 40
1.0
 40
1.0
 40
1.0
 10
-76.84649642287824
 20
89.68901769447075
 30
0.0
 10
-77.44652769159941
 20
89.34711468947302
 30
0.0
 10
-77.654476161057
 20
88.58336121064722
 30
0.0
 10
-77.31342366104681
 20
87.98460569940742
 30
0.0
  0
SPLINE
  5
10EB
102
{ACAD_REACTORS
330
17EF
102
}
330
A
100
AcDbEntity
  8
0
370
    13
100
AcDbSpline
210
0.0
220
0.0
230
1.0
 70
     8
 71
     3
 72
     8
 73
     4
 74
     0
 42
0.0000000001
 43
0.0000000001
 40
1.0
 40
1.0
 40
1.0
 40
1.0
 40
2.0
 40
2.0
 40
2.0
 40
2.0
 10
-77.31342366104681
 20
87.98460569940742
 30
0.0
 10
-77.25388831191785
 20
87.88169459591305
 30
0.0
 10
-77.180744882988
 20
87.78728854229427
 30
0.0
 10
-77.09654488921987
 20
87.70478955850128
 30
0.0
  0
SPLINE
  5
10EC
102
{ACAD_REACTORS
330
17EF
102
}
330
A
100
AcDbEntity
  8
0
370
    13
100
AcDbSpline
210
0.0
220
0.0
230
1.0
 70
     8
 71
     3
 72
     8
 73
     4
 74
     0
 42
0.0000000001
 43
0.0000000001
 40
0.0
 40
0.0
 40
0.0
 40
0.0
 40
1.0
 40
1.0
 40
1.0
 40
1.0
 10
-67.84305062460446
 20
50.12522668331444
 30
0.0
 10
-66.96150220500206
 20
49.80458630300562
 30
0.0
 10
-65.9859729842747
 20
50.25875596636082
 30
0.0
 10
-65.66575785645962
 20
51.14158014344454
 30
0.0
  0
SPLINE
  5
10ED
102
{ACAD_REACTORS
330
17EF
102
}
330
A
100
AcDbEntity
  8
0
370
    13
100
AcDbSpline
210
0.0
220
0.0
230
1.0
 70
     8
 71
     3
 72
     8
 73
     4
 74
     0
 42
0.0000000001
 43
0.0000000001
 40
1.0
 40
1.0
 40
1.0
 40
1.0
 40
2.0
 40
2.0
 40
2.0
 40
2.0
 10
-65.66575785645962
 20
51.14158014344454
 30
0.0
 10
-65.58198311518532
 20
51.36866497512214
 30
0.0
 10
-65.54796291568306
 20
51.6119094015633
 30
0.0
 10
-65.56794978289063
 20
51.85260231304183
 30
0.0
  0
SPLINE
  5
10EE
102
{ACAD_REACTORS
330
17EF
102
}
330
A
100
AcDbEntity
  8
0
370
    13
100
AcDbSpline
210
0.0
220
0.0
230
1.0
 70
     8
 71
     3
 72
     8
 73
     4
 74
     0
 42
0.0000000001
 43
0.0000000001
 40
0.0
 40
0.0
 40
0.0
 40
0.0
 40
1.0
 40
1.0
 40
1.0
 40
1.0
 10
-70.52894537530808
 20
81.96473139748203
 30
0.0
 10
-69.69715149747776
 20
81.51821627901481
 30
0.0
 10
-68.65996066515254
 20
81.83035160944809
 30
0.0
 10
-68.21302029419155
 20
82.66299599226597
 30
0.0
  0
SPLINE
  5
10EF
102
{ACAD_REACTORS
330
17EF
102
}
330
A
100
AcDbEntity
  8
0
370
    13
100
AcDbSpline
210
0.0
220
0.0
230
1.0
 70
     8
 71
     3
 72
     8
 73
     4
 74
     0
 42
0.0000000001
 43
0.0000000001
 40
1.0
 40
1.0
 40
1.0
 40
1.0
 40
2.0
 40
2.0
 40
2.0
 40
2.0
 10
-68.21302029419155
 20
82.66299599226597
 30
0.0
 10
-68.05992939643137
 20
82.95131718304764
 30
0.0
 10
-67.99103849243929
 20
83.27706059328184
 30
0.0
 10
-68.01612838957223
 20
83.60280400351598
 30
0.0
  0
SPLINE
  5
10F0
102
{ACAD_REACTORS
330
17EF
102
}
330
A
100
AcDbEntity
  8
0
370
    13
100
AcDbSpline
210
0.0
220
0.0
230
1.0
 70
     8
 71
     3
 72
     8
 73
     4
 74
     0
 42
0.0000000001
 43
0.0000000001
 40
0.0
 40
0.0
 40
0.0
 40
0.0
 40
1.0
 40
1.0
 40
1.0
 40
1.0
 10
-67.48413751985558
 20
76.71456410929536
 30
0.0
 10
-67.55728094878543
 20
77.65097010059514
 30
0.0
 10
-68.37334048434596
 20
78.35093570535419
 30
0.0
 10
-69.30932122315195
 20
78.27864278141188
 30
0.0
  0
SPLINE
  5
10F1
102
{ACAD_REACTORS
330
17EF
102
}
330
A
100
AcDbEntity
  8
0
370
    13
100
AcDbSpline
210
0.0
220
0.0
230
1.0
 70
     8
 71
     3
 72
     8
 73
     4
 74
     0
 42
0.0000000001
 43
0.0000000001
 40
1.0
 40
1.0
 40
1.0
 40
1.0
 40
2.0
 40
2.0
 40
2.0
 40
2.0
 10
-69.30932122315195
 20
78.27864278141188
 30
0.0
 10
-69.4636878783935
 20
78.26673571158607
 30
0.0
 10
-69.61592827116611
 20
78.23441652205893
 30
0.0
 10
-69.76051411905072
 20
78.18168521283043
 30
0.0
  0
SPLINE
  5
10F2
102
{ACAD_REACTORS
330
17EF
102
}
330
A
100
AcDbEntity
  8
0
370
    13
100
AcDbSpline
210
0.0
220
0.0
230
1.0
 70
     8
 71
     3
 72
     8
 73
     4
 74
     0
 42
0.0000000001
 43
0.0000000001
 40
0.0
 40
0.0
 40
0.0
 40
0.0
 40
1.0
 40
1.0
 40
1.0
 40
1.0
 10
-70.52894537530808
 20
81.96473139748203
 30
0.0
 10
-70.62717870137088
 20
82.01576169673542
 30
0.0
 10
-70.74837566209767
 20
81.98004048725804
 30
0.0
 10
-70.79983121384485
 20
81.88308291867659
 30
0.0
  0
SPLINE
  5
10F3
102
{ACAD_REACTORS
330
17EF
102
}
330
A
100
AcDbEntity
  8
0
370
    13
100
AcDbSpline
210
0.0
220
0.0
230
1.0
 70
     8
 71
     3
 72
     8
 73
     4
 74
     0
 42
0.0000000001
 43
0.0000000001
 40
1.0
 40
1.0
 40
1.0
 40
1.0
 40
2.0
 40
2.0
 40
2.0
 40
2.0
 10
-70.79983121384485
 20
81.88308291867659
 30
0.0
 10
-70.81726656608975
 20
81.85076372914945
 30
0.0
 10
-70.82577161596531
 20
81.81589302465964
 30
0.0
 10
-70.82322010100266
 20
81.78017181518226
 30
0.0
  0
SPLINE
  5
10F6
102
{ACAD_REACTORS
330
17EF
102
}
330
A
100
AcDbEntity
  8
0
370
    13
100
AcDbSpline
210
0.0
220
0.0
230
1.0
 70
     8
 71
     3
 72
     8
 73
     4
 74
     0
 42
0.0000000001
 43
0.0000000001
 40
0.0
 40
0.0
 40
0.0
 40
0.0
 40
1.0
 40
1.0
 40
1.0
 40
1.0
 10
-75.59752984865141
 20
99.60930786933055
 30
0.0
 10
-76.19586010739746
 20
99.26740486433281
 30
0.0
 10
-76.40508433433639
 20
98.50450189049457
 30
0.0
 10
-76.06445708681999
 20
97.90404536927963
 30
0.0
  0
SPLINE
  5
10F7
102
{ACAD_REACTORS
330
17EF
102
}
330
A
100
AcDbEntity
  8
0
370
    13
100
AcDbSpline
210
0.0
220
0.0
230
1.0
 70
     8
 71
     3
 72
     8
 73
     4
 74
     0
 42
0.0000000001
 43
0.0000000001
 40
1.0
 40
1.0
 40
1.0
 40
1.0
 40
2.0
 40
2.0
 40
2.0
 40
2.0
 10
-76.06445708681999
 20
97.90404536927963
 30
0.0
 10
-76.00492173769102
 20
97.80113426578527
 30
0.0
 10
-75.93177830876117
 20
97.70757871715407
 30
0.0
 10
-75.8467278100055
 20
97.62593023834865
 30
0.0
  0
SPLINE
  5
10F8
102
{ACAD_REACTORS
330
17EF
102
}
330
A
100
AcDbEntity
  8
0
370
    13
100
AcDbSpline
210
0.0
220
0.0
230
1.0
 70
     8
 71
     3
 72
     8
 73
     4
 74
     0
 42
0.0000000001
 43
0.0000000001
 40
0.0
 40
0.0
 40
0.0
 40
0.0
 40
1.0
 40
1.0
 40
1.0
 40
1.0
 10
-69.73712523189293
 20
105.9404669967016
 30
0.0
 10
-69.79793633850322
 20
106.7246325952287
 30
0.0
 10
-70.48344335847382
 20
107.3131820466179
 30
0.0
 10
-71.26888471448231
 20
107.2519456875138
 30
0.0
  0
SPLINE
  5
10F9
102
{ACAD_REACTORS
330
17EF
102
}
330
A
100
AcDbEntity
  8
0
370
    13
100
AcDbSpline
210
0.0
220
0.0
230
1.0
 70
     8
 71
     3
 72
     8
 73
     4
 74
     0
 42
0.0000000001
 43
0.0000000001
 40
1.0
 40
1.0
 40
1.0
 40
1.0
 40
2.0
 40
2.0
 40
2.0
 40
2.0
 10
-71.26888471448231
 20
107.2519456875138
 30
0.0
 10
-71.94418567460219
 20
107.1992143782853
 30
0.0
 10
-72.49020987661352
 20
106.6804063358758
 30
0.0
 10
-72.57355936539408
 20
106.0093579006936
 30
0.0
  0
MTEXT
  5
1629
330
A
100
AcDbEntity
  8
文字
370
    13
100
AcDbMText
 10
-152.9380318922833
 20
4.381814107932711
 30
0.0
 40
5.0
 41
0.0
 71
     5
 72
     1
  1
{\fMS UI Gothic|b0|i0|c128|p17;B1710570}
 73
     1
 44
1.0
  0
LINE
  5
17E5
102
{ACAD_REACTORS
330
17EF
102
}
330
A
100
AcDbEntity
  8
0
370
    13
100
AcDbLine
 10
-74.50122891968937
 20
130.7369943041745
 30
0.0
 11
-75.82503993282284
 21
130.7369943041745
 31
0.0
  0
SPLINE
  5
1811
102
{ACAD_REACTORS
330
182B
102
}
330
A
100
AcDbEntity
  8
0
 62
   253
370
    13
100
AcDbSpline
210
0.0
220
0.0
230
1.0
 70
     8
 71
     3
 72
    11
 73
     7
 74
     0
 42
0.0000000001
 43
0.0000000001
 40
5.0
 40
5.0
 40
5.0
 40
5.0
 40
6.0
 40
6.0
 40
6.0
 40
7.0
 40
7.0
 40
7.0
 40
7.0
 10
-110.8760061683359
 20
116.5036454861888
 30
0.0
 10
-111.9799439534092
 20
116.5036454861888
 30
0.0
 10
-112.8749822136382
 20
115.6079200564702
 30
0.0
 10
-112.8749822136382
 20
114.503638686652
 30
0.0
 10
-112.8749822136382
 20
114.3751379920933
 30
0.0
 10
-112.8629567475698
 20
114.2462937127897
 30
0.0
 10
-112.8378750611988
 20
114.1201981114446
 30
0.0
  0
SPLINE
  5
1819
102
{ACAD_REACTORS
330
182B
102
}
330
A
100
AcDbEntity
  8
0
 62
   253
370
    13
100
AcDbSpline
210
0.0
220
0.0
230
1.0
 70
     8
 71
     3
 72
     8
 73
     4
 74
     0
 42
0.0000000001
 43
0.0000000001
 40
7.0
 40
7.0
 40
7.0
 40
7.0
 40
8.0
 40
8.0
 40
8.0
 40
8.0
 10
-112.8378750611988
 20
114.1201981114446
 30
0.0
 10
-108.6299926915155
 20
92.58258838305456
 30
0.0
 10
-108.6320541999844
 20
70.43408497839298
 30
0.0
 10
-112.8447467560949
 20
48.89716241949258
 30
0.0
  0
SPLINE
  5
181A
102
{ACAD_REACTORS
330
182B
102
}
330
A
100
AcDbEntity
  8
0
 62
   253
370
    13
100
AcDbSpline
210
0.0
220
0.0
230
1.0
 70
    24
 71
     3
 72
     8
 73
     4
 74
     0
 42
0.0000000001
 43
0.0000000001
 40
2.0
 40
2.0
 40
2.0
 40
2.0
 40
3.0
 40
3.0
 40
3.0
 40
3.0
 10
-105.3978909970916
 20
48.51372184428504
 30
0.0
 10
-105.3978909970916
 20
48.51372184428504
 30
0.0
 10
-105.3978909970916
 20
114.503638686652
 30
0.0
 10
-105.3978909970916
 20
114.503638686652
 30
0.0
  0
SPLINE
  5
181D
102
{ACAD_REACTORS
330
182B
102
}
330
A
100
AcDbEntity
  8
0
 62
   253
370
    13
100
AcDbSpline
210
0.0
220
0.0
230
1.0
 70
     8
 71
     3
 72
     8
 73
     4
 74
     0
 42
0.0000000001
 43
0.0000000001
 40
1.0
 40
1.0
 40
1.0
 40
1.0
 40
2.0
 40
2.0
 40
2.0
 40
2.0
 10
-107.3968670423938
 20
46.51405862949315
 30
0.0
 10
-106.2929292573206
 20
46.51405862949315
 30
0.0
 10
-105.3978909970916
 20
47.40909688972215
 30
0.0
 10
-105.3978909970916
 20
48.51372184428504
 30
0.0
  0
SPLINE
  5
181E
102
{ACAD_REACTORS
330
182B
102
}
330
A
100
AcDbEntity
  8
0
 62
   253
370
    13
100
AcDbSpline
210
0.0
220
0.0
230
1.0
 70
    24
 71
     3
 72
     8
 73
     4
 74
     0
 42
0.0000000001
 43
0.0000000001
 40
0.0
 40
0.0
 40
0.0
 40
0.0
 40
1.0
 40
1.0
 40
1.0
 40
1.0
 10
-110.8821906937424
 20
46.51405862949315
 30
0.0
 10
-110.8821906937424
 20
46.51405862949315
 30
0.0
 10
-107.3968670423938
 20
46.51405862949315
 30
0.0
 10
-107.3968670423938
 20
46.51405862949315
 30
0.0
  0
SPLINE
  5
181F
102
{ACAD_REACTORS
330
182B
102
}
330
A
100
AcDbEntity
  8
0
 62
   253
370
    13
100
AcDbSpline
210
0.0
220
0.0
230
1.0
 70
     8
 71
     3
 72
     8
 73
     4
 74
     0
 42
0.0000000001
 43
0.0000000001
 40
8.0
 40
8.0
 40
8.0
 40
8.0
 40
9.0
 40
9.0
 40
9.0
 40
9.0
 10
-112.8447467560949
 20
48.89716241949258
 30
0.0
 10
-113.0567385436424
 20
47.81349613436307
 30
0.0
 10
-112.3499847235691
 20
46.76315756948008
 30
0.0
 10
-111.2663184384396
 20
46.55116578193255
 30
0.0
  0
SPLINE
  5
1820
102
{ACAD_REACTORS
330
182B
102
}
330
A
100
AcDbEntity
  8
0
 62
   253
370
    13
100
AcDbSpline
210
0.0
220
0.0
230
1.0
 70
     8
 71
     3
 72
     8
 73
     4
 74
     0
 42
0.0000000001
 43
0.0000000001
 40
9.0
 40
9.0
 40
9.0
 40
9.0
 40
10.0
 40
10.0
 40
10.0
 40
10.0
 10
-111.2663184384396
 20
46.55116578193255
 30
0.0
 10
-111.1398792523497
 20
46.52642768030628
 30
0.0
 10
-111.011034973046
 20
46.51405862949315
 30
0.0
 10
-110.8821906937424
 20
46.51405862949315
 30
0.0
  0
SPLINE
  5
1827
102
{ACAD_REACTORS
330
182B
102
}
330
A
100
AcDbEntity
  8
0
 62
   253
370
    13
100
AcDbSpline
210
0.0
220
0.0
230
1.0
 70
     8
 71
     3
 72
     8
 73
     4
 74
     0
 42
0.0000000001
 43
0.0000000001
 40
3.0
 40
3.0
 40
3.0
 40
3.0
 40
4.0
 40
4.0
 40
4.0
 40
4.0
 10
-105.3978909970916
 20
114.503638686652
 30
0.0
 10
-105.3978909970916
 20
115.6079200564702
 30
0.0
 10
-106.2929292573206
 20
116.5036454861888
 30
0.0
 10
-107.3968670423938
 20
116.5036454861888
 30
0.0
  0
SPLINE
  5
182A
102
{ACAD_REACTORS
330
182B
102
}
330
A
100
AcDbEntity
  8
0
 62
   253
370
    13
100
AcDbSpline
210
0.0
220
0.0
230
1.0
 70
    24
 71
     3
 72
     8
 73
     4
 74
     0
 42
0.0000000001
 43
0.0000000001
 40
4.0
 40
4.0
 40
4.0
 40
4.0
 40
5.0
 40
5.0
 40
5.0
 40
5.0
 10
-107.3968670423938
 20
116.5036454861888
 30
0.0
 10
-107.3968670423938
 20
116.5036454861888
 30
0.0
 10
-110.8760061683359
 20
116.5036454861888
 30
0.0
 10
-110.8760061683359
 20
116.5036454861888
 30
0.0
  0
LINE
  5
182D
102
{ACAD_REACTORS
330
18B5
102
}
330
A
100
AcDbEntity
  8
0
 62
   253
370
    13
100
AcDbLine
 10
-88.89788936121957
 20
106.5113351067525
 30
0.0
 11
-88.89788936121957
 21
67.27017781730069
 31
0.0
  0
LINE
  5
182E
102
{ACAD_REACTORS
330
18B5
102
}
330
A
100
AcDbEntity
  8
0
 62
   253
370
    13
100
AcDbLine
 10
-79.65202387839307
 20
92.01515113849058
 30
0.0
 11
-78.38728843274893
 21
106.4676998441618
 31
0.0
  0
SPLINE
  5
1833
102
{ACAD_REACTORS
330
18B5
102
}
330
A
100
AcDbEntity
  8
0
 62
   253
370
    13
100
AcDbSpline
210
0.0
220
0.0
230
1.0
 70
    24
 71
     3
 72
     8
 73
     4
 74
     0
 42
0.0000000001
 43
0.0000000001
 40
2.0
 40
2.0
 40
2.0
 40
2.0
 40
3.0
 40
3.0
 40
3.0
 40
3.0
 10
-88.24851419352937
 20
67.01970453833666
 30
0.0
 10
-88.24851419352937
 20
67.01970453833666
 30
0.0
 10
-82.29625207444778
 20
67.01970453833666
 30
0.0
 10
-82.29625207444778
 20
67.01970453833666
 30
0.0
  0
SPLINE
  5
183C
102
{ACAD_REACTORS
330
18B5
102
}
330
A
100
AcDbEntity
  8
0
 62
   253
370
    13
100
AcDbSpline
210
0.0
220
0.0
230
1.0
 70
     8
 71
     3
 72
     8
 73
     4
 74
     0
 42
0.0000000001
 43
0.0000000001
 40
1.0
 40
1.0
 40
1.0
 40
1.0
 40
2.0
 40
2.0
 40
2.0
 40
2.0
 10
-88.8978893612195
 20
67.27017781730282
 30
0.0
 10
-88.8978893612195
 20
66.99427926722069
 30
0.0
 10
-88.52441274361153
 20
67.01970453833666
 30
0.0
 10
-88.24851419352937
 20
67.01970453833666
 30
0.0
  0
LINE
  5
1844
102
{ACAD_REACTORS
330
18B5
102
}
330
A
100
AcDbEntity
  8
0
 62
   253
370
    13
100
AcDbLine
 10
-81.7987413639635
 20
67.4763286641886
 30
0.0
 11
-80.52575988444393
 21
82.01614789504152
 31
0.0
  0
SPLINE
  5
1851
102
{ACAD_REACTORS
330
18B5
102
}
330
A
100
AcDbEntity
  8
0
 62
   253
370
    13
100
AcDbSpline
210
0.0
220
0.0
230
1.0
 70
     8
 71
     3
 72
     8
 73
     4
 74
     0
 42
0.0000000001
 43
0.0000000001
 40
0.0
 40
0.0
 40
0.0
 40
0.0
 40
1.0
 40
1.0
 40
1.0
 40
1.0
 10
-82.29625207444778
 20
67.01970453833666
 30
0.0
 10
-82.03718917686135
 20
67.01970453833666
 30
0.0
 10
-81.82073078763133
 20
67.21760935134696
 30
0.0
 10
-81.7987413639635
 20
67.47632866418857
 30
0.0
  0
SPLINE
  5
1859
102
{ACAD_REACTORS
330
18B5
102
}
330
A
100
AcDbEntity
  8
0
 62
   253
370
    13
100
AcDbSpline
210
0.0
220
0.0
230
1.0
 70
     8
 71
     3
 72
     8
 73
     4
 74
     0
 42
0.0000000001
 43
0.0000000001
 40
0.0
 40
0.0
 40
0.0
 40
0.0
 40
1.0
 40
1.0
 40
1.0
 40
1.0
 10
-80.52644705393348
 20
82.01614789504146
 30
0.0
 10
-77.63586859585032
 20
83.25889391701776
 30
0.0
 10
-76.29966752328576
 20
86.61021951789065
 30
0.0
 10
-77.54310071475171
 20
89.50114156071871
 30
0.0
  0
SPLINE
  5
1862
102
{ACAD_REACTORS
330
18B5
102
}
330
A
100
AcDbEntity
  8
0
 62
   253
370
    13
100
AcDbSpline
210
0.0
220
0.0
230
1.0
 70
     8
 71
     3
 72
     8
 73
     4
 74
     0
 42
0.0000000001
 43
0.0000000001
 40
1.0
 40
1.0
 40
1.0
 40
1.0
 40
2.0
 40
2.0
 40
2.0
 40
2.0
 10
-77.54310071475171
 20
89.50114156071871
 30
0.0
 10
-77.98426352708728
 20
90.52777277820979
 30
0.0
 10
-78.71816054200056
 20
91.4015087842606
 30
0.0
 10
-79.65202387839307
 20
92.01446396900095
 30
0.0
  0
LINE
  5
1875
102
{ACAD_REACTORS
330
18B5
102
}
330
A
100
AcDbEntity
  8
0
 62
   253
370
    13
100
AcDbLine
 10
-79.03563284620466
 20
107.0109073257057
 30
0.0
 11
-88.39900431175598
 21
107.0109073257057
 31
0.0
  0
SPLINE
  5
1876
102
{ACAD_REACTORS
330
18B5
102
}
330
A
100
AcDbEntity
  8
0
 62
   253
370
    13
100
AcDbSpline
210
0.0
220
0.0
230
1.0
 70
     8
 71
     3
 72
     8
 73
     4
 74
     0
 42
0.0000000001
 43
0.0000000001
 40
0.0
 40
0.0
 40
0.0
 40
0.0
 40
1.0
 40
1.0
 40
1.0
 40
1.0
 10
-88.39831714226638
 20
107.0109073257057
 30
0.0
 10
-88.67421569234849
 20
107.0109073257057
 30
0.0
 10
-88.8978893612195
 20
106.7872336568346
 30
0.0
 10
-88.8978893612195
 20
106.5106479372629
 30
0.0
  0
SPLINE
  5
1879
102
{ACAD_REACTORS
330
18B5
102
}
330
A
100
AcDbEntity
  8
0
 62
   253
370
    13
100
AcDbSpline
210
0.0
220
0.0
230
1.0
 70
     8
 71
     3
 72
     8
 73
     4
 74
     0
 42
0.0000000001
 43
0.0000000001
 40
0.0
 40
0.0
 40
0.0
 40
0.0
 40
1.0
 40
1.0
 40
1.0
 40
1.0
 10
-78.38728843274893
 20
106.4676998441617
 30
0.0
 10
-78.36358108535709
 20
106.7429112247542
 30
0.0
 10
-78.56698325428434
 20
106.9847948851001
 30
0.0
 10
-78.84185105013202
 20
107.0095329867264
 30
0.0
  0
SPLINE
  5
187F
102
{ACAD_REACTORS
330
18B5
102
}
330
A
100
AcDbEntity
  8
0
 62
   253
370
    13
100
AcDbSpline
210
0.0
220
0.0
230
1.0
 70
     8
 71
     3
 72
     8
 73
     4
 74
     0
 42
0.0000000001
 43
0.0000000001
 40
1.0
 40
1.0
 40
1.0
 40
1.0
 40
2.0
 40
2.0
 40
2.0
 40
2.0
 10
-78.84185105013202
 20
107.0095329867264
 30
0.0
 10
-78.8559380246692
 20
107.0102201562161
 30
0.0
 10
-78.87071216869603
 20
107.0109073257057
 30
0.0
 10
-78.88548631272286
 20
107.0109073257057
 30
0.0
  0
SPLINE
  5
1883
102
{ACAD_REACTORS
330
18B7
102
}
330
A
100
AcDbEntity
  8
0
 62
   253
370
    13
100
AcDbSpline
210
0.0
220
0.0
230
1.0
 70
    24
 71
     3
 72
     8
 73
     4
 74
     0
 42
0.0000000001
 43
0.0000000001
 40
2.0
 40
2.0
 40
2.0
 40
2.0
 40
3.0
 40
3.0
 40
3.0
 40
3.0
 10
-88.39694280328709
 20
51.70900450099882
 30
0.0
 10
-88.39694280328709
 20
51.70900450099882
 30
0.0
 10
-84.19627571324488
 20
51.71621978063979
 30
0.0
 10
-84.19627571324488
 20
51.71621978063979
 30
0.0
  0
LINE
  5
1884
102
{ACAD_REACTORS
330
18B7
102
}
330
A
100
AcDbEntity
  8
0
 62
   253
370
    13
100
AcDbLine
 10
-80.74187468892914
 20
91.70604822902973
 30
0.0
 11
-88.39831714226638
 21
91.70742256800897
 31
0.0
  0
SPLINE
  5
1887
102
{ACAD_REACTORS
330
18B7
102
}
330
A
100
AcDbEntity
  8
0
 62
   253
370
    13
100
AcDbSpline
210
0.0
220
0.0
230
1.0
 70
    24
 71
     3
 72
     8
 73
     4
 74
     0
 42
0.0000000001
 43
0.0000000001
 40
0.0
 40
0.0
 40
0.0
 40
0.0
 40
1.0
 40
1.0
 40
1.0
 40
1.0
 10
-88.8978893612195
 20
91.20716317956615
 30
0.0
 10
-88.8978893612195
 20
91.20716317956615
 30
0.0
 10
-88.8978893612195
 20
52.21579199959293
 30
0.0
 10
-88.8978893612195
 20
52.21579199959293
 30
0.0
  0
SPLINE
  5
1888
102
{ACAD_REACTORS
330
18B7
102
}
330
A
100
AcDbEntity
  8
0
 62
   253
370
    13
100
AcDbSpline
210
0.0
220
0.0
230
1.0
 70
     8
 71
     3
 72
     8
 73
     4
 74
     0
 42
0.0000000001
 43
0.0000000001
 40
1.0
 40
1.0
 40
1.0
 40
1.0
 40
2.0
 40
2.0
 40
2.0
 40
2.0
 10
-88.8978893612195
 20
52.21579199959293
 30
0.0
 10
-88.8978893612195
 20
51.93989344951089
 30
0.0
 10
-88.67284135336925
 20
51.70900450099882
 30
0.0
 10
-88.39694280328709
 20
51.70900450099882
 30
0.0
  0
SPLINE
  5
188B
102
{ACAD_REACTORS
330
18B7
102
}
330
A
100
AcDbEntity
  8
0
 62
   253
370
    13
100
AcDbSpline
210
0.0
220
0.0
230
1.0
 70
     8
 71
     3
 72
     8
 73
     4
 74
     0
 42
0.0000000001
 43
0.0000000001
 40
0.0
 40
0.0
 40
0.0
 40
0.0
 40
1.0
 40
1.0
 40
1.0
 40
1.0
 10
-88.39831714226638
 20
91.70742256800895
 30
0.0
 10
-88.67421569234849
 20
91.70742256800895
 30
0.0
 10
-88.8978893612195
 20
91.48374889913791
 30
0.0
 10
-88.8978893612195
 20
91.20716317956615
 30
0.0
  0
SPLINE
  5
188F
102
{ACAD_REACTORS
330
18B7
102
}
330
A
100
AcDbEntity
  8
0
 62
   253
370
    13
100
AcDbSpline
210
0.0
220
0.0
230
1.0
 70
     8
 71
     3
 72
     8
 73
     4
 74
     0
 42
0.0000000001
 43
0.0000000001
 40
0.0
 40
0.0
 40
0.0
 40
0.0
 40
1.0
 40
1.0
 40
1.0
 40
1.0
 10
-82.42440918426181
 20
66.73156029830915
 30
0.0
 10
-79.54551260750211
 20
67.95815783727945
 30
0.0
 10
-78.20587568748945
 20
71.28577609076046
 30
0.0
 10
-79.43247322645973
 20
74.16432908277537
 30
0.0
  0
LINE
  5
1890
102
{ACAD_REACTORS
330
18B7
102
}
330
A
100
AcDbEntity
  8
0
 62
   253
370
    13
100
AcDbLine
 10
-83.69876500276062
 20
52.1728439064918
 30
0.0
 11
-82.42509635375141
 21
66.7315602983092
 31
0.0
  0
SPLINE
  5
1891
102
{ACAD_REACTORS
330
18B7
102
}
330
A
100
AcDbEntity
  8
0
 62
   253
370
    13
100
AcDbSpline
210
0.0
220
0.0
230
1.0
 70
     8
 71
     3
 72
     8
 73
     4
 74
     0
 42
0.0000000001
 43
0.0000000001
 40
0.0
 40
0.0
 40
0.0
 40
0.0
 40
1.0
 40
1.0
 40
1.0
 40
1.0
 10
-84.19627571324488
 20
51.71621978063979
 30
0.0
 10
-83.93721281565845
 20
51.71621978063979
 30
0.0
 10
-83.72041084168362
 20
51.91378100890529
 30
0.0
 10
-83.69876500276062
 20
52.17284390649175
 30
0.0
  0
LINE
  5
1895
102
{ACAD_REACTORS
330
18B7
102
}
330
A
100
AcDbEntity
  8
0
 62
   253
370
    13
100
AcDbLine
 10
-81.55307827142465
 20
76.69208205033962
 30
0.0
 11
-80.28731207154605
 21
91.16421508646494
 31
0.0
  0
SPLINE
  5
1896
102
{ACAD_REACTORS
330
18B7
102
}
330
A
100
AcDbEntity
  8
0
 62
   253
370
    13
100
AcDbSpline
210
0.0
220
0.0
230
1.0
 70
     8
 71
     3
 72
     8
 73
     4
 74
     0
 42
0.0000000001
 43
0.0000000001
 40
1.0
 40
1.0
 40
1.0
 40
1.0
 40
2.0
 40
2.0
 40
2.0
 40
2.0
 10
-79.43247322645973
 20
74.16432908277537
 30
0.0
 10
-79.87294886930564
 20
75.19886274939705
 30
0.0
 10
-80.61096890115667
 20
76.0784396961096
 30
0.0
 10
-81.55376544091424
 20
76.69208205033959
 30
0.0
  0
SPLINE
  5
1897
102
{ACAD_REACTORS
330
18B7
102
}
330
A
100
AcDbEntity
  8
0
 62
   253
370
    13
100
AcDbSpline
210
0.0
220
0.0
230
1.0
 70
     8
 71
     3
 72
     8
 73
     4
 74
     0
 42
0.0000000001
 43
0.0000000001
 40
0.0
 40
0.0
 40
0.0
 40
0.0
 40
1.0
 40
1.0
 40
1.0
 40
1.0
 10
-80.28731207154605
 20
91.16421508646496
 30
0.0
 10
-80.26326113940937
 20
91.43942646705744
 30
0.0
 10
-80.46666330833662
 20
91.68131012740341
 30
0.0
 10
-80.74187468892914
 20
91.70604822902973
 30
0.0
  0
LWPOLYLINE
  5
18B9
330
A
100
AcDbEntity
  8
0
 62
     4
370
    13
100
AcDbPolyline
 90
        6
 70
     0
 43
0.0
 10
-105.3978893612195
 20
191.3331688962091
 10
-105.3978893612196
 20
42.33316889620917
 10
-104.3978893612196
 20
41.33316889620917
 10
-98.39788936121966
 20
41.33316889620917
 10
-97.39788936121966
 20
42.33316889620917
 10
-97.39788936121954
 20
191.3331688962091
  0
LWPOLYLINE
  5
18BA
330
A
100
AcDbEntity
  8
0
 62
     4
370
    13
100
AcDbPolyline
 90
        6
 70
     0
 43
0.0
 10
-96.89788936121955
 20
191.3331688962091
 10
-96.89788936121965
 20
42.33316889620917
 10
-95.89788936121966
 20
41.33316889620917
 10
-89.89788936121966
 20
41.33316889620917
 10
-88.89788936121965
 20
42.33316889620917
 10
-88.89788936121954
 20
191.3331688962091
  0
LWPOLYLINE
  5
18BB
330
A
100
AcDbEntity
  8
0
 62
     4
370
    13
100
AcDbPolyline
 90
        6
 70
     0
 43
0.0
 10
-105.3978893612195
 20
191.3331688962091
 10
-105.3978893612196
 20
42.33316889620917
 10
-104.3978893612196
 20
41.33316889620917
 10
-89.89788936121966
 20
41.33316889620917
 10
-88.89788936121965
 20
42.33316889620917
 10
-88.89788936121954
 20
191.3331688962091
  0
DIMENSION
  5
18BC
330
A
100
AcDbEntity
  8
寸法
370
    13
100
AcDbDimension
  2
*D0
 10
-105.3978893612195
 20
194.2896818538778
 30
0.0
 11
-97.14788936121955
 21
196.2896818538778
 31
0.0
 70
    32
  1
{\fMS UI Gothic|b0|i0|c128|p17;\U+2260}<>
 71
     5
 42
16.5
  3
ISO-25 1／10
100
AcDbAlignedDimension
 13
-88.89788936121954
 23
189.0551033070202
 33
0.0
 14
-105.3978893612195
 24
189.2896817824493
 34
0.0
 50
180.0
100
AcDbRotatedDimension
1001
ACAD
1000
DSTYLE
1002
{
1070
   279
1070
     1
1002
}
  0
LWPOLYLINE
  5
18BD
330
A
100
AcDbEntity
  8
0
370
    13
100
AcDbPolyline
 90
        4
 70
     1
 43
0.0
 10
-102.1657795939752
 20
39.33316889620917
 10
-92.16577959397529
 20
39.33316889620917
 10
-92.16577959397529
 20
41.33316889620917
 10
-102.1657795939752
 20
41.33316889620917
  0
SPLINE
  5
18D4
102
{ACAD_REACTORS
330
1926
102
}
330
A
100
AcDbEntity
  8
0
 62
   253
370
    13
100
AcDbSpline
210
0.0
220
0.0
230
1.0
 70
     8
 71
     3
 72
     8
 73
     4
 74
     0
 42
0.0000000001
 43
0.0000000001
 40
0.0
 40
0.0
 40
0.0
 40
0.0
 40
1.0
 40
1.0
 40
1.0
 40
1.0
 10
-120.9329860000455
 20
131.8035002757875
 30
0.0
 10
-115.6290682944196
 20
134.9284035298309
 30
0.0
 10
-110.7608160452123
 20
138.833244154592
 30
0.0
 10
-106.4721912604988
 20
143.4018905063253
 30
0.0
  0
SPLINE
  5
18D6
102
{ACAD_REACTORS
330
1926
102
}
330
A
100
AcDbEntity
  8
0
 62
   253
370
    13
100
AcDbSpline
210
0.0
220
0.0
230
1.0
 70
     8
 71
     3
 72
     8
 73
     4
 74
     0
 42
0.0000000001
 43
0.0000000001
 40
0.0
 40
0.0
 40
0.0
 40
0.0
 40
1.0
 40
1.0
 40
1.0
 40
1.0
 10
-114.8577205423221
 20
130.7352953041745
 30
0.0
 10
-114.7536143646447
 20
130.7352953041745
 30
0.0
 10
-114.668405347932
 20
130.826345261549
 30
0.0
 10
-114.668405347932
 20
130.9373231341225
 30
0.0
  0
SPLINE
  5
18D8
102
{ACAD_REACTORS
330
1926
102
}
330
A
100
AcDbEntity
  8
0
 62
   253
370
    13
100
AcDbSpline
210
0.0
220
0.0
230
1.0
 70
     8
 71
     3
 72
     8
 73
     4
 74
     0
 42
0.0000000001
 43
0.0000000001
 40
0.0
 40
0.0
 40
0.0
 40
0.0
 40
1.0
 40
1.0
 40
1.0
 40
1.0
 10
-118.8127245398254
 20
124.8830163458324
 30
0.0
 10
-118.7199566587268
 20
124.2679996526232
 30
0.0
 10
-118.2351585838005
 20
123.8168728826883
 30
0.0
 10
-117.6665258311406
 20
123.8168728826883
 30
0.0
  0
SPLINE
  5
18DA
102
{ACAD_REACTORS
330
1926
102
}
330
A
100
AcDbEntity
  8
0
 62
   253
370
    13
100
AcDbSpline
210
0.0
220
0.0
230
1.0
 70
     8
 71
     3
 72
     8
 73
     4
 74
     0
 42
0.0000000001
 43
0.0000000001
 40
0.0
 40
0.0
 40
0.0
 40
0.0
 40
1.0
 40
1.0
 40
1.0
 40
1.0
 10
-117.6039934075852
 20
123.8175600521779
 30
0.0
 10
-117.0353606549253
 20
123.8175600521779
 30
0.0
 10
-116.5502189952542
 20
124.2679996526232
 30
0.0
 10
-116.4577946989004
 20
124.8830163458324
 30
0.0
  0
LINE
  5
18E0
102
{ACAD_REACTORS
330
1926
102
}
330
A
100
AcDbEntity
  8
0
 62
   253
370
    13
100
AcDbLine
 10
-118.8250935906385
 20
130.530518796268
 30
0.0
 11
-118.8250935906385
 21
128.7706777333532
 31
0.0
  0
SPLINE
  5
18E4
102
{ACAD_REACTORS
330
1926
102
}
330
A
100
AcDbEntity
  8
0
 62
   253
370
    13
100
AcDbSpline
210
0.0
220
0.0
230
1.0
 70
     8
 71
     3
 72
     8
 73
     4
 74
     0
 42
0.0000000001
 43
0.0000000001
 40
0.0
 40
0.0
 40
0.0
 40
0.0
 40
1.0
 40
1.0
 40
1.0
 40
1.0
 10
-119.488583241018
 20
125.2943573105679
 30
0.0
 10
-119.5095419104514
 20
125.1868152854424
 30
0.0
 10
-119.4631579699021
 20
125.0754938281242
 30
0.0
 10
-119.3858514023199
 20
125.0466327095601
 30
0.0
  0
SPLINE
  5
18E5
102
{ACAD_REACTORS
330
1926
102
}
330
A
100
AcDbEntity
  8
0
 62
   253
370
    13
100
AcDbSpline
210
0.0
220
0.0
230
1.0
 70
     8
 71
     3
 72
     8
 73
     4
 74
     0
 42
0.0000000001
 43
0.0000000001
 40
0.0
 40
0.0
 40
0.0
 40
0.0
 40
1.0
 40
1.0
 40
1.0
 40
1.0
 10
-119.2521694284369
 20
125.6375284454345
 30
0.0
 10
-119.3387527841289
 20
125.6663895639985
 30
0.0
 10
-119.4280848177794
 20
125.6024828014639
 30
0.0
 10
-119.4511049956816
 20
125.4956279458281
 30
0.0
  0
SPLINE
  5
18E6
102
{ACAD_REACTORS
330
1926
102
}
330
A
100
AcDbEntity
  8
0
 62
   253
370
    13
100
AcDbSpline
210
0.0
220
0.0
230
1.0
 70
     8
 71
     3
 72
     8
 73
     4
 74
     0
 42
0.0000000001
 43
0.0000000001
 40
0.0
 40
0.0
 40
0.0
 40
0.0
 40
1.0
 40
1.0
 40
1.0
 40
1.0
 10
-118.8250935906385
 20
127.9790584813119
 30
0.0
 10
-118.8250935906385
 20
128.0704520234312
 30
0.0
 10
-118.8697596074638
 20
128.1498200994822
 30
0.0
 10
-118.9329792005088
 20
128.1738710316189
 30
0.0
  0
SPLINE
  5
18E7
102
{ACAD_REACTORS
330
1926
102
}
330
A
100
AcDbEntity
  8
0
 62
   253
370
    13
100
AcDbSpline
210
0.0
220
0.0
230
1.0
 70
     8
 71
     3
 72
     8
 73
     4
 74
     0
 42
0.0000000001
 43
0.0000000001
 40
0.0
 40
0.0
 40
0.0
 40
0.0
 40
1.0
 40
1.0
 40
1.0
 40
1.0
 10
-119.4682842329221
 20
128.5445989712685
 30
0.0
 10
-119.4892429023555
 20
128.437056946143
 30
0.0
 10
-119.4428589618062
 20
128.3264226583143
 30
0.0
 10
-119.3655523942241
 20
128.2975615397503
 30
0.0
  0
SPLINE
  5
18E8
102
{ACAD_REACTORS
330
1926
102
}
330
A
100
AcDbEntity
  8
0
 62
   253
370
    13
100
AcDbSpline
210
0.0
220
0.0
230
1.0
 70
     8
 71
     3
 72
     8
 73
     4
 74
     0
 42
0.0000000001
 43
0.0000000001
 40
0.0
 40
0.0
 40
0.0
 40
0.0
 40
1.0
 40
1.0
 40
1.0
 40
1.0
 10
-119.2521694284369
 20
128.8947118262293
 30
0.0
 10
-119.3387527841289
 20
128.9235729447933
 30
0.0
 10
-119.4280848177794
 20
128.8593225975139
 30
0.0
 10
-119.4511049956816
 20
128.7517805723885
 30
0.0
  0
LINE
  5
18E9
102
{ACAD_REACTORS
330
1926
102
}
330
A
100
AcDbEntity
  8
0
 62
   253
370
    13
100
AcDbLine
 10
-118.8250935906385
 20
127.9790584813119
 30
0.0
 11
-118.8250935906385
 21
125.5134943525581
 31
0.0
  0
LINE
  5
18EA
102
{ACAD_REACTORS
330
1926
102
}
330
A
100
AcDbEntity
  8
0
 62
   253
370
    13
100
AcDbLine
 10
-118.8250935906385
 20
128.7706777333532
 30
0.0
 11
-119.2521694284369
 21
128.8947118262294
 31
0.0
  0
LINE
  5
18EB
102
{ACAD_REACTORS
330
1926
102
}
330
A
100
AcDbEntity
  8
0
 62
   253
370
    13
100
AcDbLine
 10
-119.4511049956816
 20
128.7517805723885
 30
0.0
 11
-119.4682842329221
 21
128.5445989712685
 31
0.0
  0
LINE
  5
18EC
102
{ACAD_REACTORS
330
1926
102
}
330
A
100
AcDbEntity
  8
0
 62
   253
370
    13
100
AcDbLine
 10
-119.3655523942241
 20
128.2975615397503
 30
0.0
 11
-118.9329792005088
 21
128.1738710316189
 31
0.0
  0
LINE
  5
18ED
102
{ACAD_REACTORS
330
1926
102
}
330
A
100
AcDbEntity
  8
0
 62
   253
370
    13
100
AcDbLine
 10
-118.8250935906385
 20
125.5134943525581
 30
0.0
 11
-119.2521694284369
 21
125.6375284454344
 31
0.0
  0
LINE
  5
18EE
102
{ACAD_REACTORS
330
1926
102
}
330
A
100
AcDbEntity
  8
0
 62
   253
370
    13
100
AcDbLine
 10
-119.4511049956816
 20
125.4956279458281
 30
0.0
 11
-119.488583241018
 21
125.2943573105679
 31
0.0
  0
LINE
  5
18EF
102
{ACAD_REACTORS
330
1926
102
}
330
A
100
AcDbEntity
  8
0
 62
   253
370
    13
100
AcDbLine
 10
-119.3858514023199
 20
125.0466327095601
 30
0.0
 11
-118.8130956327223
 21
124.8854914642445
 31
0.0
  0
LINE
  5
18F8
102
{ACAD_REACTORS
330
1926
102
}
330
A
100
AcDbEntity
  8
0
 62
   253
370
    13
100
AcDbLine
 10
-120.8405617036917
 20
130.7352953041745
 30
0.0
 11
-119.0109729375806
 21
130.7352953041745
 31
0.0
  0
LINE
  5
18FA
102
{ACAD_REACTORS
330
1926
102
}
330
A
100
AcDbEntity
  8
0
 62
   253
370
    13
100
AcDbLine
 10
-121.031251237061
 20
131.6289592254242
 30
0.0
 11
-121.031251237061
 21
130.940071812081
 31
0.0
  0
SPLINE
  5
18FB
102
{ACAD_REACTORS
330
1926
102
}
330
A
100
AcDbEntity
  8
0
 62
   253
370
    13
100
AcDbSpline
210
0.0
220
0.0
230
1.0
 70
     8
 71
     3
 72
     8
 73
     4
 74
     0
 42
0.0000000001
 43
0.0000000001
 40
0.0
 40
0.0
 40
0.0
 40
0.0
 40
1.0
 40
1.0
 40
1.0
 40
1.0
 10
-120.9329860000455
 20
131.8035002757875
 30
0.0
 10
-120.9920825761527
 20
131.771890479265
 30
0.0
 10
-121.031251237061
 20
131.7021427760687
 30
0.0
 10
-121.031251237061
 20
131.6289592254242
 30
0.0
  0
SPLINE
  5
18FC
102
{ACAD_REACTORS
330
1926
102
}
330
A
100
AcDbEntity
  8
0
 62
   253
370
    13
100
AcDbSpline
210
0.0
220
0.0
230
1.0
 70
     8
 71
     3
 72
     8
 73
     4
 74
     0
 42
0.0000000001
 43
0.0000000001
 40
0.0
 40
0.0
 40
0.0
 40
0.0
 40
1.0
 40
1.0
 40
1.0
 40
1.0
 10
-121.031251237061
 20
130.9373231341225
 30
0.0
 10
-121.031251237061
 20
130.826345261549
 30
0.0
 10
-120.9467293898379
 20
130.7352953041745
 30
0.0
 10
-120.8426232121605
 20
130.7352953041745
 30
0.0
  0
SPLINE
  5
18FD
102
{ACAD_REACTORS
330
1926
102
}
330
A
100
AcDbEntity
  8
0
 62
   253
370
    13
100
AcDbSpline
210
0.0
220
0.0
230
1.0
 70
     8
 71
     3
 72
     8
 73
     4
 74
     0
 42
0.0000000001
 43
0.0000000001
 40
0.0
 40
0.0
 40
0.0
 40
0.0
 40
1.0
 40
1.0
 40
1.0
 40
1.0
 10
-118.8250935906385
 20
130.5336110589713
 30
0.0
 10
-118.8250935906385
 20
130.6452761010345
 30
0.0
 10
-118.9089282683721
 20
130.7352953041745
 30
0.0
 10
-119.0130344460494
 20
130.7352953041745
 30
0.0
  0
LINE
  5
1903
102
{ACAD_REACTORS
330
1926
102
}
330
A
100
AcDbEntity
  8
0
 62
   253
370
    13
100
AcDbLine
 10
-116.4474871565561
 20
128.7706777333532
 30
0.0
 11
-116.4474871565561
 21
130.530518796268
 31
0.0
  0
LINE
  5
1905
102
{ACAD_REACTORS
330
1926
102
}
330
A
100
AcDbEntity
  8
0
 62
   253
370
    13
100
AcDbLine
 10
-117.6665258311406
 20
123.8168728826883
 30
0.0
 11
-117.6039934075852
 21
123.8175600521779
 31
0.0
  0
SPLINE
  5
1906
102
{ACAD_REACTORS
330
1926
102
}
330
A
100
AcDbEntity
  8
0
 62
   253
370
    13
100
AcDbSpline
210
0.0
220
0.0
230
1.0
 70
     8
 71
     3
 72
     8
 73
     4
 74
     0
 42
0.0000000001
 43
0.0000000001
 40
0.0
 40
0.0
 40
0.0
 40
0.0
 40
1.0
 40
1.0
 40
1.0
 40
1.0
 10
-115.8802287428754
 20
125.0441575911481
 30
0.0
 10
-115.7908967092249
 20
125.0730187097122
 30
0.0
 10
-115.7372974890346
 20
125.1836529975408
 30
0.0
 10
-115.7613484211713
 20
125.2911950226662
 30
0.0
  0
SPLINE
  5
1907
102
{ACAD_REACTORS
330
1926
102
}
330
A
100
AcDbEntity
  8
0
 62
   253
370
    13
100
AcDbSpline
210
0.0
220
0.0
230
1.0
 70
     8
 71
     3
 72
     8
 73
     4
 74
     0
 42
0.0000000001
 43
0.0000000001
 40
0.0
 40
0.0
 40
0.0
 40
0.0
 40
1.0
 40
1.0
 40
1.0
 40
1.0
 10
-115.8149476413616
 20
125.4949407763384
 30
0.0
 10
-115.8386549887535
 20
125.6024828014638
 30
0.0
 10
-115.9310792851073
 20
125.6657023945088
 30
0.0
 10
-116.0204113187578
 20
125.6375284454344
 30
0.0
  0
SPLINE
  5
1908
102
{ACAD_REACTORS
330
1926
102
}
330
A
100
AcDbEntity
  8
0
 62
   253
370
    13
100
AcDbSpline
210
0.0
220
0.0
230
1.0
 70
     8
 71
     3
 72
     8
 73
     4
 74
     0
 42
0.0000000001
 43
0.0000000001
 40
0.0
 40
0.0
 40
0.0
 40
0.0
 40
1.0
 40
1.0
 40
1.0
 40
1.0
 10
-115.8699212005312
 20
128.3020281414328
 30
0.0
 10
-115.7805891668806
 20
128.3308892599968
 30
0.0
 10
-115.7269899466904
 20
128.4415235478255
 30
0.0
 10
-115.751040878827
 20
128.5490655729509
 30
0.0
  0
SPLINE
  5
1909
102
{ACAD_REACTORS
330
1926
102
}
330
A
100
AcDbEntity
  8
0
 62
   253
370
    13
100
AcDbSpline
210
0.0
220
0.0
230
1.0
 70
     8
 71
     3
 72
     8
 73
     4
 74
     0
 42
0.0000000001
 43
0.0000000001
 40
0.0
 40
0.0
 40
0.0
 40
0.0
 40
1.0
 40
1.0
 40
1.0
 40
1.0
 10
-115.8149476413616
 20
128.7517805723886
 30
0.0
 10
-115.8386549887535
 20
128.8593225975139
 30
0.0
 10
-115.9310792851073
 20
128.9235729447933
 30
0.0
 10
-116.0204113187578
 20
128.8947118262294
 30
0.0
  0
LINE
  5
190A
102
{ACAD_REACTORS
330
1926
102
}
330
A
100
AcDbEntity
  8
0
 62
   253
370
    13
100
AcDbLine
 10
-116.4474871565561
 20
125.5134943525581
 30
0.0
 11
-116.4474871565561
 21
128.1353895402002
 31
0.0
  0
LINE
  5
190B
102
{ACAD_REACTORS
330
1926
102
}
330
A
100
AcDbEntity
  8
0
 62
   253
370
    13
100
AcDbLine
 10
-116.4577946989004
 20
124.8830163458324
 30
0.0
 11
-115.8802287428754
 21
125.0441575911481
 31
0.0
  0
LINE
  5
190C
102
{ACAD_REACTORS
330
1926
102
}
330
A
100
AcDbEntity
  8
0
 62
   253
370
    13
100
AcDbLine
 10
-115.7613484211713
 20
125.2911950226662
 30
0.0
 11
-115.8149476413616
 21
125.4949407763384
 31
0.0
  0
LINE
  5
190D
102
{ACAD_REACTORS
330
1926
102
}
330
A
100
AcDbEntity
  8
0
 62
   253
370
    13
100
AcDbLine
 10
-116.0204113187578
 20
125.6375284454344
 30
0.0
 11
-116.4474871565561
 21
125.5134943525581
 31
0.0
  0
LINE
  5
190E
102
{ACAD_REACTORS
330
1926
102
}
330
A
100
AcDbEntity
  8
0
 62
   253
370
    13
100
AcDbLine
 10
-116.4474871565561
 20
128.1353895402002
 30
0.0
 11
-115.8699212005311
 21
128.3020281414328
 31
0.0
  0
LINE
  5
190F
102
{ACAD_REACTORS
330
1926
102
}
330
A
100
AcDbEntity
  8
0
 62
   253
370
    13
100
AcDbLine
 10
-115.751040878827
 20
128.5490655729509
 30
0.0
 11
-115.8149476413616
 21
128.7517805723886
 31
0.0
  0
LINE
  5
1910
102
{ACAD_REACTORS
330
1926
102
}
330
A
100
AcDbEntity
  8
0
 62
   253
370
    13
100
AcDbLine
 10
-116.0204113187578
 20
128.8947118262294
 30
0.0
 11
-116.4474871565561
 21
128.7706777333532
 31
0.0
  0
LINE
  5
1919
102
{ACAD_REACTORS
330
1926
102
}
330
A
100
AcDbEntity
  8
0
 62
   253
370
    13
100
AcDbLine
 10
-116.2567976231868
 20
130.7352953041745
 30
0.0
 11
-114.8590948813013
 21
130.7352953041745
 31
0.0
  0
SPLINE
  5
191A
102
{ACAD_REACTORS
330
1926
102
}
330
A
100
AcDbEntity
  8
0
 62
   253
370
    13
100
AcDbSpline
210
0.0
220
0.0
230
1.0
 70
     8
 71
     3
 72
     8
 73
     4
 74
     0
 42
0.0000000001
 43
0.0000000001
 40
0.0
 40
0.0
 40
0.0
 40
0.0
 40
1.0
 40
1.0
 40
1.0
 40
1.0
 10
-116.2588591316556
 20
130.7352953041745
 30
0.0
 10
-116.3633088940777
 20
130.7352953041745
 30
0.0
 10
-116.4474871565561
 20
130.6452761010345
 30
0.0
 10
-116.4474871565561
 20
130.5336110589713
 30
0.0
  0
SPLINE
  5
1920
102
{ACAD_REACTORS
330
1926
102
}
330
A
100
AcDbEntity
  8
0
 62
   253
370
    13
100
AcDbSpline
210
0.0
220
0.0
230
1.0
 70
     8
 71
     3
 72
     8
 73
     4
 74
     0
 42
0.0000000001
 43
0.0000000001
 40
0.0
 40
0.0
 40
0.0
 40
0.0
 40
1.0
 40
1.0
 40
1.0
 40
1.0
 10
-114.5515865346967
 20
132.7232766376429
 30
0.0
 10
-111.2325578998359
 20
135.6640184684682
 30
0.0
 10
-108.3134619079335
 20
139.0864661115167
 30
0.0
 10
-105.8795075757023
 20
142.8913235755383
 30
0.0
  0
LINE
  5
1922
102
{ACAD_REACTORS
330
1926
102
}
330
A
100
AcDbEntity
  8
0
 62
   253
370
    13
100
AcDbLine
 10
-114.668405347932
 20
130.940071812081
 30
0.0
 11
-114.668405347932
 21
132.5549201126861
 31
0.0
  0
SPLINE
  5
1923
102
{ACAD_REACTORS
330
1926
102
}
330
A
100
AcDbEntity
  8
0
 62
   253
370
    13
100
AcDbSpline
210
0.0
220
0.0
230
1.0
 70
     8
 71
     3
 72
     8
 73
     4
 74
     0
 42
0.0000000001
 43
0.0000000001
 40
0.0
 40
0.0
 40
0.0
 40
0.0
 40
1.0
 40
1.0
 40
1.0
 40
1.0
 10
-114.5515865346967
 20
132.7232766376429
 30
0.0
 10
-114.6154932972313
 20
132.6896053326515
 30
0.0
 10
-114.6361083819199
 20
132.6260421548617
 30
0.0
 10
-114.668405347932
 20
132.5580123753894
 30
0.0
  0
SPLINE
  5
1924
102
{ACAD_REACTORS
330
1926
102
}
330
A
100
AcDbEntity
  8
0
 62
   253
370
    13
100
AcDbSpline
210
0.0
220
0.0
230
1.0
 70
     8
 71
     3
 72
     8
 73
     4
 74
     0
 42
0.0000000001
 43
0.0000000001
 40
1.0
 40
1.0
 40
1.0
 40
1.0
 40
2.0
 40
2.0
 40
2.0
 40
2.0
 10
-105.9444450924713
 20
143.43865407402
 30
0.0
 10
-106.0880635158017
 20
143.5723085397509
 30
0.0
 10
-106.2990245491148
 20
143.5616574126619
 30
0.0
 10
-106.4721912604988
 20
143.4018905063253
 30
0.0
  0
SPLINE
  5
1925
102
{ACAD_REACTORS
330
1926
102
}
330
A
100
AcDbEntity
  8
0
 62
   253
370
    13
100
AcDbSpline
210
0.0
220
0.0
230
1.0
 70
     8
 71
     3
 72
     8
 73
     4
 74
     0
 42
0.0000000001
 43
0.0000000001
 40
0.0
 40
0.0
 40
0.0
 40
0.0
 40
1.0
 40
1.0
 40
1.0
 40
1.0
 10
-105.8767588977438
 20
142.8961337619656
 30
0.0
 10
-105.7712783810872
 20
143.0693004733497
 30
0.0
 10
-105.8001394996513
 20
143.3043124387994
 30
0.0
 10
-105.9444450924713
 20
143.43865407402
 30
0.0
  0
LINE
  5
1948
102
{ACAD_REACTORS
330
199B
102
}
330
A
100
AcDbEntity
  8
0
 62
   253
370
    13
100
AcDbLine
 10
-76.22343586473417
 20
132.7284114850909
 30
0.0
 11
-88.41657128853739
 21
140.2061898711272
 31
0.0
  0
LINE
  5
1949
102
{ACAD_REACTORS
330
199B
102
}
330
A
100
AcDbEntity
  8
0
 62
   253
370
    13
100
AcDbLine
 10
-69.63622913724441
 20
131.8072607842564
 30
0.0
 11
-88.04206391669493
 21
140.9215333098208
 31
0.0
  0
SPLINE
  5
194A
102
{ACAD_REACTORS
330
199B
102
}
330
A
100
AcDbEntity
  8
0
 62
   253
370
    13
100
AcDbSpline
210
0.0
220
0.0
230
1.0
 70
     8
 71
     3
 72
     8
 73
     4
 74
     0
 42
0.0000000001
 43
0.0000000001
 40
1.0
 40
1.0
 40
1.0
 40
1.0
 40
2.0
 40
2.0
 40
2.0
 40
2.0
 10
-88.54438481360659
 20
140.7469922594574
 30
0.0
 10
-88.64093212689809
 20
140.5549283871089
 30
0.0
 10
-88.57908687283236
 20
140.316480574211
 30
0.0
 10
-88.41657128853739
 20
140.2061898711272
 30
0.0
  0
SPLINE
  5
194B
102
{ACAD_REACTORS
330
199B
102
}
330
A
100
AcDbEntity
  8
0
 62
   253
370
    13
100
AcDbSpline
210
0.0
220
0.0
230
1.0
 70
     8
 71
     3
 72
     8
 73
     4
 74
     0
 42
0.0000000001
 43
0.0000000001
 40
0.0
 40
0.0
 40
0.0
 40
0.0
 40
1.0
 40
1.0
 40
1.0
 40
1.0
 10
-88.04206391669493
 20
140.9215333098208
 30
0.0
 10
-88.2265689246577
 20
141.0160191146433
 30
0.0
 10
-88.4481810850599
 20
140.9383689623164
 30
0.0
 10
-88.54438481360659
 20
140.7469922594574
 30
0.0
  0
LINE
  5
194E
102
{ACAD_REACTORS
330
199B
102
}
330
A
100
AcDbEntity
  8
0
 62
   253
370
    13
100
AcDbLine
 10
-75.9499424078657
 20
130.7369943041745
 30
0.0
 11
-74.46325121707457
 21
130.7369943041745
 31
0.0
  0
SPLINE
  5
194F
102
{ACAD_REACTORS
330
199B
102
}
330
A
100
AcDbEntity
  8
0
 62
   253
370
    13
100
AcDbSpline
210
0.0
220
0.0
230
1.0
 70
     8
 71
     3
 72
     8
 73
     4
 74
     0
 42
0.0000000001
 43
0.0000000001
 40
0.0
 40
0.0
 40
0.0
 40
0.0
 40
1.0
 40
1.0
 40
1.0
 40
1.0
 10
-74.97217586338337
 20
125.2969373275641
 30
0.0
 10
-74.99760113449926
 20
125.1893953024387
 30
0.0
 10
-74.94194040584011
 20
125.0780738451204
 30
0.0
 10
-74.84951610948633
 20
125.0492127265564
 30
0.0
  0
SPLINE
  5
1950
102
{ACAD_REACTORS
330
199B
102
}
330
A
100
AcDbEntity
  8
0
 62
   253
370
    13
100
AcDbSpline
210
0.0
220
0.0
230
1.0
 70
     8
 71
     3
 72
     8
 73
     4
 74
     0
 42
0.0000000001
 43
0.0000000001
 40
0.0
 40
0.0
 40
0.0
 40
0.0
 40
1.0
 40
1.0
 40
1.0
 40
1.0
 10
-74.71097581808234
 20
125.6392274454344
 30
0.0
 10
-74.80821030086346
 20
125.6680885639984
 30
0.0
 10
-74.90784987685825
 20
125.6041818014638
 30
0.0
 10
-74.93464948695342
 20
125.497326945828
 30
0.0
  0
SPLINE
  5
1951
102
{ACAD_REACTORS
330
199B
102
}
330
A
100
AcDbEntity
  8
0
 62
   253
370
    13
100
AcDbSpline
210
0.0
220
0.0
230
1.0
 70
     8
 71
     3
 72
     8
 73
     4
 74
     0
 42
0.0000000001
 43
0.0000000001
 40
0.0
 40
0.0
 40
0.0
 40
0.0
 40
1.0
 40
1.0
 40
1.0
 40
1.0
 10
-74.98481285969552
 20
128.550764572951
 30
0.0
 10
-75.01023813081141
 20
128.4432225478256
 30
0.0
 10
-74.95457740215226
 20
128.3325882599968
 30
0.0
 10
-74.86215310579848
 20
128.3037271414328
 30
0.0
  0
SPLINE
  5
1952
102
{ACAD_REACTORS
330
199B
102
}
330
A
100
AcDbEntity
  8
0
 62
   253
370
    13
100
AcDbSpline
210
0.0
220
0.0
230
1.0
 70
     8
 71
     3
 72
     8
 73
     4
 74
     0
 42
0.0000000001
 43
0.0000000001
 40
0.0
 40
0.0
 40
0.0
 40
0.0
 40
1.0
 40
1.0
 40
1.0
 40
1.0
 10
-74.71097581808234
 20
128.8957236567398
 30
0.0
 10
-74.80821030086346
 20
128.9245847753038
 30
0.0
 10
-74.90784987685825
 20
128.8603344280244
 30
0.0
 10
-74.93464948695342
 20
128.752792402899
 30
0.0
  0
LINE
  5
195C
102
{ACAD_REACTORS
330
199B
102
}
330
A
100
AcDbEntity
  8
0
 62
   253
370
    13
100
AcDbLine
 10
-74.93464948695342
 20
125.497326945828
 30
0.0
 11
-74.97217586338337
 21
125.2969373275641
 31
0.0
  0
LINE
  5
195D
102
{ACAD_REACTORS
330
199B
102
}
330
A
100
AcDbEntity
  8
0
 62
   253
370
    13
100
AcDbLine
 10
-74.93464948695342
 20
128.752792402899
 30
0.0
 11
-74.98481285969552
 21
128.550764572951
 31
0.0
  0
SPLINE
  5
1962
102
{ACAD_REACTORS
330
199B
102
}
330
A
100
AcDbEntity
  8
0
 62
   253
370
    13
100
AcDbSpline
210
0.0
220
0.0
230
1.0
 70
     8
 71
     3
 72
     8
 73
     4
 74
     0
 42
0.0000000001
 43
0.0000000001
 40
0.0
 40
0.0
 40
0.0
 40
0.0
 40
1.0
 40
1.0
 40
1.0
 40
1.0
 10
-76.12963722940114
 20
130.9390221341225
 30
0.0
 10
-76.12963722940114
 20
130.828044261549
 30
0.0
 10
-76.04923839911569
 20
130.7369943041745
 30
0.0
 10
-75.9499424078657
 20
130.7369943041745
 30
0.0
  0
LINE
  5
1963
102
{ACAD_REACTORS
330
199B
102
}
330
A
100
AcDbEntity
  8
0
 62
   253
370
    13
100
AcDbLine
 10
-76.12963722940114
 20
132.5566191126861
 30
0.0
 11
-76.12963722940114
 21
130.9390221341225
 31
0.0
  0
SPLINE
  5
1964
102
{ACAD_REACTORS
330
199B
102
}
330
A
100
AcDbEntity
  8
0
 62
   253
370
    13
100
AcDbSpline
210
0.0
220
0.0
230
1.0
 70
     8
 71
     3
 72
     8
 73
     4
 74
     0
 42
0.0000000001
 43
0.0000000001
 40
0.0
 40
0.0
 40
0.0
 40
0.0
 40
1.0
 40
1.0
 40
1.0
 40
1.0
 10
-76.12963722940114
 20
132.5566191126861
 30
0.0
 10
-76.12963722940114
 20
132.625336061648
 30
0.0
 10
-76.15712400898591
 20
132.6888992394378
 30
0.0
 10
-76.22343586473417
 20
132.7284114850909
 30
0.0
  0
SPLINE
  5
1966
102
{ACAD_REACTORS
330
199B
102
}
330
A
100
AcDbEntity
  8
0
 62
   253
370
    13
100
AcDbSpline
210
0.0
220
0.0
230
1.0
 70
     8
 71
     3
 72
     8
 73
     4
 74
     0
 42
0.0000000001
 43
0.0000000001
 40
0.0
 40
0.0
 40
0.0
 40
0.0
 40
1.0
 40
1.0
 40
1.0
 40
1.0
 10
-73.02225679734306
 20
123.8192590521779
 30
0.0
 10
-72.42132707867108
 20
123.8192590521779
 30
0.0
 10
-71.90835505467032
 20
124.2696986526232
 30
0.0
 10
-71.81077698714438
 20
124.8847153458324
 30
0.0
  0
SPLINE
  5
1967
102
{ACAD_REACTORS
330
199B
102
}
330
A
100
AcDbEntity
  8
0
 62
   253
370
    13
100
AcDbSpline
210
0.0
220
0.0
230
1.0
 70
     8
 71
     3
 72
     8
 73
     4
 74
     0
 42
0.0000000001
 43
0.0000000001
 40
0.0
 40
0.0
 40
0.0
 40
0.0
 40
1.0
 40
1.0
 40
1.0
 40
1.0
 10
-74.27084375998117
 20
124.8847153458324
 30
0.0
 10
-74.17360927720006
 20
124.2696986526232
 30
0.0
 10
-73.66544743962663
 20
123.8185718826883
 30
0.0
 10
-73.07035866161641
 20
123.8185718826883
 30
0.0
  0
LINE
  5
196A
102
{ACAD_REACTORS
330
199B
102
}
330
A
100
AcDbEntity
  8
0
 62
   253
370
    13
100
AcDbLine
 10
-71.63898461473954
 20
130.7369943041745
 30
0.0
 11
-69.70941268788886
 21
130.7369943041745
 31
0.0
  0
LINE
  5
196F
102
{ACAD_REACTORS
330
199B
102
}
330
A
100
AcDbEntity
  8
0
 62
   253
370
    13
100
AcDbLine
 10
-71.81833585153021
 20
128.7716895638636
 30
0.0
 11
-71.81833585153015
 21
130.5353100589734
 31
0.0
  0
LINE
  5
1970
102
{ACAD_REACTORS
330
199B
102
}
330
A
100
AcDbEntity
  8
0
 62
   253
370
    13
100
AcDbLine
 10
-74.28389998028393
 20
130.5353100589713
 30
0.0
 11
-74.28389998028393
 21
128.7716895638636
 31
0.0
  0
LINE
  5
1971
102
{ACAD_REACTORS
330
199B
102
}
330
A
100
AcDbEntity
  8
0
 62
   253
370
    13
100
AcDbLine
 10
-73.05627168707923
 20
123.8192590521779
 30
0.0
 11
-73.03565660239065
 21
123.8192590521779
 31
0.0
  0
LINE
  5
1972
102
{ACAD_REACTORS
330
199B
102
}
330
A
100
AcDbEntity
  8
0
 62
   253
370
    13
100
AcDbLine
 10
-74.8495161094863
 20
125.0492127265564
 30
0.0
 11
-74.27126298397173
 21
124.8873843117511
 31
0.0
  0
LINE
  5
1973
102
{ACAD_REACTORS
330
199B
102
}
330
A
100
AcDbEntity
  8
0
 62
   253
370
    13
100
AcDbLine
 10
-74.28389998028393
 20
125.5151933525581
 30
0.0
 11
-74.71097581808232
 21
125.6392274454344
 31
0.0
  0
LINE
  5
1974
102
{ACAD_REACTORS
330
199B
102
}
330
A
100
AcDbEntity
  8
0
 62
   253
370
    13
100
AcDbLine
 10
-74.86215310579851
 20
128.3037271414328
 30
0.0
 11
-74.28389998028393
 21
128.1370885402002
 31
0.0
  0
LINE
  5
1975
102
{ACAD_REACTORS
330
199B
102
}
330
A
100
AcDbEntity
  8
0
 62
   253
370
    13
100
AcDbLine
 10
-74.28389998028393
 20
128.7716895638636
 30
0.0
 11
-74.71097581808232
 21
128.8957236567399
 31
0.0
  0
LINE
  5
1978
102
{ACAD_REACTORS
330
199B
102
}
330
A
100
AcDbEntity
  8
0
 62
   253
370
    13
100
AcDbLine
 10
-74.28389998028393
 20
128.1370885402002
 30
0.0
 11
-74.28389998028393
 21
125.5151933525581
 31
0.0
  0
SPLINE
  5
197A
102
{ACAD_REACTORS
330
199B
102
}
330
A
100
AcDbEntity
  8
0
 62
   253
370
    13
100
AcDbSpline
210
0.0
220
0.0
230
1.0
 70
     8
 71
     3
 72
     8
 73
     4
 74
     0
 42
0.0000000001
 43
0.0000000001
 40
0.0
 40
0.0
 40
0.0
 40
0.0
 40
1.0
 40
1.0
 40
1.0
 40
1.0
 10
-71.2325238616298
 20
125.0458565911481
 30
0.0
 10
-71.13047919242134
 20
125.0747177097121
 30
0.0
 10
-71.06966469259003
 20
125.1853519975407
 30
0.0
 10
-71.0971514721748
 20
125.2928940226662
 30
0.0
  0
SPLINE
  5
197B
102
{ACAD_REACTORS
330
199B
102
}
330
A
100
AcDbEntity
  8
0
 62
   253
370
    13
100
AcDbSpline
210
0.0
220
0.0
230
1.0
 70
     8
 71
     3
 72
     8
 73
     4
 74
     0
 42
0.0000000001
 43
0.0000000001
 40
0.0
 40
0.0
 40
0.0
 40
0.0
 40
1.0
 40
1.0
 40
1.0
 40
1.0
 10
-71.15762238726128
 20
125.4966397763384
 30
0.0
 10
-71.18442199735645
 20
125.6041818014639
 30
0.0
 10
-71.2892153445234
 20
125.6674013945088
 30
0.0
 10
-71.39126001373185
 20
125.6392274454344
 30
0.0
  0
SPLINE
  5
197C
102
{ACAD_REACTORS
330
199B
102
}
330
A
100
AcDbEntity
  8
0
 62
   253
370
    13
100
AcDbSpline
210
0.0
220
0.0
230
1.0
 70
     8
 71
     3
 72
     8
 73
     4
 74
     0
 42
0.0000000001
 43
0.0000000001
 40
0.0
 40
0.0
 40
0.0
 40
0.0
 40
1.0
 40
1.0
 40
1.0
 40
1.0
 10
-71.67712252141345
 20
128.1748828621293
 30
0.0
 10
-71.75992644491256
 20
128.1515190994822
 30
0.0
 10
-71.81833585153021
 20
128.0714638539416
 30
0.0
 10
-71.81833585153021
 20
127.9807574813119
 30
0.0
  0
SPLINE
  5
197D
102
{ACAD_REACTORS
330
199B
102
}
330
A
100
AcDbEntity
  8
0
 62
   253
370
    13
100
AcDbSpline
210
0.0
220
0.0
230
1.0
 70
     8
 71
     3
 72
     8
 73
     4
 74
     0
 42
0.0000000001
 43
0.0000000001
 40
0.0
 40
0.0
 40
0.0
 40
0.0
 40
1.0
 40
1.0
 40
1.0
 40
1.0
 10
-71.24454932769817
 20
128.2985733702608
 30
0.0
 10
-71.14250465848972
 20
128.3274344888248
 30
0.0
 10
-71.0816901586584
 20
128.4380687766535
 30
0.0
 10
-71.10917693824316
 20
128.545610801779
 30
0.0
  0
SPLINE
  5
197E
102
{ACAD_REACTORS
330
199B
102
}
330
A
100
AcDbEntity
  8
0
 62
   253
370
    13
100
AcDbSpline
210
0.0
220
0.0
230
1.0
 70
     8
 71
     3
 72
     8
 73
     4
 74
     0
 42
0.0000000001
 43
0.0000000001
 40
0.0
 40
0.0
 40
0.0
 40
0.0
 40
1.0
 40
1.0
 40
1.0
 40
1.0
 10
-71.15762238726128
 20
128.752792402899
 30
0.0
 10
-71.18442199735645
 20
128.8603344280244
 30
0.0
 10
-71.2892153445234
 20
128.9245847753038
 30
0.0
 10
-71.39126001373185
 20
128.8957236567399
 30
0.0
  0
LINE
  5
197F
102
{ACAD_REACTORS
330
199B
102
}
330
A
100
AcDbEntity
  8
0
 62
   253
370
    13
100
AcDbLine
 10
-71.39126001373185
 20
128.8957236567399
 30
0.0
 11
-71.81833585153021
 21
128.7716895638636
 31
0.0
  0
LINE
  5
1980
102
{ACAD_REACTORS
330
199B
102
}
330
A
100
AcDbEntity
  8
0
 62
   253
370
    13
100
AcDbLine
 10
-71.10917693824316
 20
128.545610801779
 30
0.0
 11
-71.15762238726128
 21
128.752792402899
 31
0.0
  0
LINE
  5
1981
102
{ACAD_REACTORS
330
199B
102
}
330
A
100
AcDbEntity
  8
0
 62
   253
370
    13
100
AcDbLine
 10
-71.67712252141345
 20
128.1748828621293
 30
0.0
 11
-71.24454932769817
 21
128.2985733702608
 31
0.0
  0
LINE
  5
1982
102
{ACAD_REACTORS
330
199B
102
}
330
A
100
AcDbEntity
  8
0
 62
   253
370
    13
100
AcDbLine
 10
-71.39126001373185
 20
125.6392274454344
 30
0.0
 11
-71.81833585153021
 21
125.5151933525581
 31
0.0
  0
LINE
  5
1983
102
{ACAD_REACTORS
330
199B
102
}
330
A
100
AcDbEntity
  8
0
 62
   253
370
    13
100
AcDbLine
 10
-71.09807352023864
 20
125.2963790914118
 30
0.0
 11
-71.15762238726128
 21
125.4966397763384
 31
0.0
  0
LINE
  5
1984
102
{ACAD_REACTORS
330
199B
102
}
330
A
100
AcDbEntity
  8
0
 62
   253
370
    13
100
AcDbLine
 10
-71.81077698714438
 20
124.8847153458324
 30
0.0
 11
-71.23252386162977
 21
125.0458565911481
 31
0.0
  0
LINE
  5
1985
102
{ACAD_REACTORS
330
199B
102
}
330
A
100
AcDbEntity
  8
0
 62
   253
370
    13
100
AcDbLine
 10
-71.81833585153021
 20
125.5151933525581
 30
0.0
 11
-71.81833585153021
 21
127.9807574813119
 31
0.0
  0
SPLINE
  5
198D
102
{ACAD_REACTORS
330
199B
102
}
330
A
100
AcDbEntity
  8
0
 62
   253
370
    13
100
AcDbSpline
210
0.0
220
0.0
230
1.0
 70
     8
 71
     3
 72
     8
 73
     4
 74
     0
 42
0.0000000001
 43
0.0000000001
 40
0.0
 40
0.0
 40
0.0
 40
0.0
 40
1.0
 40
1.0
 40
1.0
 40
1.0
 10
-74.28389998028393
 20
130.5353100589713
 30
0.0
 10
-74.28389998028393
 20
130.6462879315448
 30
0.0
 10
-74.36395522582461
 20
130.7369943041745
 30
0.0
 10
-74.46325121707457
 20
130.7369943041745
 30
0.0
  0
SPLINE
  5
198F
102
{ACAD_REACTORS
330
199B
102
}
330
A
100
AcDbEntity
  8
0
 62
   253
370
    13
100
AcDbSpline
210
0.0
220
0.0
230
1.0
 70
     8
 71
     3
 72
     8
 73
     4
 74
     0
 42
0.0000000001
 43
0.0000000001
 40
0.0
 40
0.0
 40
0.0
 40
0.0
 40
1.0
 40
1.0
 40
1.0
 40
1.0
 10
-71.63898461473954
 20
130.7369943041745
 30
0.0
 10
-71.73828060598953
 20
130.7369943041745
 30
0.0
 10
-71.81833585153018
 20
130.6469751010345
 30
0.0
 10
-71.81833585153018
 20
130.5353100589713
 30
0.0
  0
SPLINE
  5
1997
102
{ACAD_REACTORS
330
199B
102
}
330
A
100
AcDbEntity
  8
0
 62
   253
370
    13
100
AcDbSpline
210
0.0
220
0.0
230
1.0
 70
     8
 71
     3
 72
     8
 73
     4
 74
     0
 42
0.0000000001
 43
0.0000000001
 40
0.0
 40
0.0
 40
0.0
 40
0.0
 40
1.0
 40
1.0
 40
1.0
 40
1.0
 10
-69.53006145109824
 20
131.6279095474658
 30
0.0
 10
-69.53006145109824
 20
131.7038417760687
 30
0.0
 10
-69.57094803573056
 20
131.773589479265
 30
0.0
 10
-69.63622913724441
 20
131.8072607842564
 30
0.0
  0
SPLINE
  5
1998
102
{ACAD_REACTORS
330
199B
102
}
330
A
100
AcDbEntity
  8
0
 62
   253
370
    13
100
AcDbSpline
210
0.0
220
0.0
230
1.0
 70
     8
 71
     3
 72
     8
 73
     4
 74
     0
 42
0.0000000001
 43
0.0000000001
 40
0.0
 40
0.0
 40
0.0
 40
0.0
 40
1.0
 40
1.0
 40
1.0
 40
1.0
 10
-69.70941268788886
 20
130.7369943041745
 30
0.0
 10
-69.61046028138369
 20
130.7369943041745
 30
0.0
 10
-69.53006145109824
 20
130.828044261549
 30
0.0
 10
-69.53006145109824
 20
130.9390221341225
 30
0.0
  0
LINE
  5
1999
102
{ACAD_REACTORS
330
199B
102
}
330
A
100
AcDbEntity
  8
0
 62
   253
370
    13
100
AcDbLine
 10
-69.53006145109824
 20
130.9390221341225
 30
0.0
 11
-69.53006145109828
 21
131.6306582254242
 31
0.0
  0
DIMENSION
  5
19BA
330
A
100
AcDbEntity
  8
寸法
370
    13
100
AcDbDimension
  2
*D1
 10
-134.3877177866659
 20
25.73529515515482
 30
0.0
 11
-136.3877177866659
 21
78.23529522966468
 31
0.0
 70
    32
 71
     5
 42
105.0000001490197
  3
ISO-25 1／10
100
AcDbAlignedDimension
 13
-120.4080861280442
 23
130.7352953041745
 33
0.0
 14
-128.8008536782951
 24
25.73529515515482
 34
0.0
 50
270.0
100
AcDbRotatedDimension
1001
ACAD
1000
DSTYLE
1002
{
1070
   279
1070
     1
1002
}
  0
DIMENSION
  5
19F4
330
A
100
AcDbEntity
  8
寸法
370
    13
100
AcDbDimension
  2
*D3
 10
-61.38832045717722
 20
10.73529544812355
 30
0.0
 11
-95.38865529275071
 21
12.73529544812355
 31
0.0
 70
    32
 71
     5
 42
68.00066967114696
  3
ISO-25 1／10
100
AcDbAlignedDimension
 13
-129.3889901283241
 23
26.22307373032784
 33
0.0
 14
-61.38832045717722
 24
26.22307373032785
 34
0.0
100
AcDbRotatedDimension
1001
ACAD
1000
DSTYLE
1002
{
1070
   279
1070
     1
1002
}
  0
LINE
  5
19F5
102
{ACAD_REACTORS
330
1AB1
102
}
330
A
100
AcDbEntity
  8
0
370
    13
100
AcDbLine
 10
-92.99124952434056
 20
29.73436960664578
 30
0.0
 11
-92.99124952434056
 21
-7.495352231646613
 31
0.0
  0
LINE
  5
19F6
102
{ACAD_REACTORS
330
1AB1
102
}
330
A
100
AcDbEntity
  8
0
370
    13
100
AcDbLine
 10
-100.9912495243405
 20
29.73436960664578
 30
0.0
 11
-100.9912495243405
 21
-12.11415438516365
 31
0.0
  0
LINE
  5
19F7
102
{ACAD_REACTORS
330
1AB1
102
}
330
A
100
AcDbEntity
  8
0
370
    13
100
AcDbLine
 10
-92.99124952434056
 20
-7.495352231646613
 30
0.0
 11
-100.9912495243405
 21
-12.11415438516368
 31
0.0
  0
LINE
  5
19F8
102
{ACAD_REACTORS
330
1AB1
102
}
330
A
100
AcDbEntity
  8
0
370
    13
100
AcDbLine
 10
-92.99124952434056
 20
-14.49535223164661
 30
0.0
 11
-100.9912495243405
 21
-19.11415438516367
 31
0.0
  0
LINE
  5
19F9
102
{ACAD_REACTORS
330
1AB1
102
}
330
A
100
AcDbEntity
  8
0
370
    13
100
AcDbLine
 10
-92.99124952434056
 20
-8.650052770025915
 30
0.0
 11
-100.9912495243405
 21
-13.26885492354289
 31
0.0
  0
LINE
  5
19FA
102
{ACAD_REACTORS
330
1AB1
102
}
330
A
100
AcDbEntity
  8
0
370
    13
100
AcDbLine
 10
-91.74124952434056
 20
-7.3510146643492
 30
0.0
 11
-102.2412495243405
 21
-13.41319249084031
 31
0.0
  0
LINE
  5
19FB
102
{ACAD_REACTORS
330
1AB1
102
}
330
A
100
AcDbEntity
  8
0
370
    13
100
AcDbLine
 10
-92.99124952434056
 20
-42.49535223164661
 30
0.0
 11
-100.9912495243405
 21
-47.11415438516367
 31
0.0
  0
LINE
  5
19FC
102
{ACAD_REACTORS
330
1AB1
102
}
330
A
100
AcDbEntity
  8
0
370
    13
100
AcDbLine
 10
-92.99124952434056
 20
-43.65005277002591
 30
0.0
 11
-100.9912495243405
 21
-48.26885492354289
 31
0.0
  0
LINE
  5
19FD
102
{ACAD_REACTORS
330
1AB1
102
}
330
A
100
AcDbEntity
  8
0
370
    13
100
AcDbLine
 10
-91.74124952434056
 20
-42.3510146643492
 30
0.0
 11
-102.2412495243405
 21
-48.41319249084031
 31
0.0
  0
LINE
  5
19FE
102
{ACAD_REACTORS
330
1AB1
102
}
330
A
100
AcDbEntity
  8
0
370
    13
100
AcDbLine
 10
-92.99124952434056
 20
-22.65005277002591
 30
0.0
 11
-100.9912495243405
 21
-27.2688549235429
 31
0.0
  0
LINE
  5
19FF
102
{ACAD_REACTORS
330
1AB1
102
}
330
A
100
AcDbEntity
  8
0
370
    13
100
AcDbLine
 10
-92.99124952434056
 20
-21.49535223164661
 30
0.0
 11
-100.9912495243405
 21
-26.11415438516368
 31
0.0
  0
LINE
  5
1A00
102
{ACAD_REACTORS
330
1AB1
102
}
330
A
100
AcDbEntity
  8
0
370
    13
100
AcDbLine
 10
-91.74124952434056
 20
-21.3510146643492
 30
0.0
 11
-102.2412495243405
 21
-27.41319249084031
 31
0.0
  0
LINE
  5
1A01
102
{ACAD_REACTORS
330
1AB1
102
}
330
A
100
AcDbEntity
  8
0
370
    13
100
AcDbLine
 10
-92.99124952434056
 20
-35.49535223164661
 30
0.0
 11
-100.9912495243405
 21
-40.11415438516368
 31
0.0
  0
LINE
  5
1A02
102
{ACAD_REACTORS
330
1AB1
102
}
330
A
100
AcDbEntity
  8
0
370
    13
100
AcDbLine
 10
-91.74124952434056
 20
-35.3510146643492
 30
0.0
 11
-102.2412495243405
 21
-41.4131924908403
 31
0.0
  0
LINE
  5
1A03
102
{ACAD_REACTORS
330
1AB1
102
}
330
A
100
AcDbEntity
  8
0
370
    13
100
AcDbLine
 10
-92.99124952434056
 20
-36.65005277002591
 30
0.0
 11
-100.9912495243405
 21
-41.26885492354289
 31
0.0
  0
LINE
  5
1A04
102
{ACAD_REACTORS
330
1AB1
102
}
330
A
100
AcDbEntity
  8
0
370
    13
100
AcDbLine
 10
-92.99124952434056
 20
-29.65005277002591
 30
0.0
 11
-100.9912495243405
 21
-34.26885492354289
 31
0.0
  0
LINE
  5
1A05
102
{ACAD_REACTORS
330
1AB1
102
}
330
A
100
AcDbEntity
  8
0
370
    13
100
AcDbLine
 10
-91.74124952434056
 20
-28.3510146643492
 30
0.0
 11
-102.2412495243405
 21
-34.41319249084031
 31
0.0
  0
LINE
  5
1A06
102
{ACAD_REACTORS
330
1AB1
102
}
330
A
100
AcDbEntity
  8
0
370
    13
100
AcDbLine
 10
-92.99124952434056
 20
-28.49535223164661
 30
0.0
 11
-100.9912495243405
 21
-33.11415438516368
 31
0.0
  0
LINE
  5
1A07
102
{ACAD_REACTORS
330
1AB1
102
}
330
A
100
AcDbEntity
  8
0
370
    13
100
AcDbLine
 10
-91.74124952434056
 20
-14.3510146643492
 30
0.0
 11
-102.2412495243405
 21
-20.4131924908403
 31
0.0
  0
LINE
  5
1A08
102
{ACAD_REACTORS
330
1AB1
102
}
330
A
100
AcDbEntity
  8
0
370
    13
100
AcDbLine
 10
-92.99124952434056
 20
-15.65005277002591
 30
0.0
 11
-100.9912495243405
 21
-20.26885492354289
 31
0.0
  0
LINE
  5
1A09
102
{ACAD_REACTORS
330
1AB1
102
}
330
A
100
AcDbEntity
  8
0
370
    13
100
AcDbLine
 10
-92.99124952434056
 20
-49.49535223164661
 30
0.0
 11
-100.9912495243405
 21
-54.11415438516367
 31
0.0
  0
LINE
  5
1A0A
102
{ACAD_REACTORS
330
1AB1
102
}
330
A
100
AcDbEntity
  8
0
370
    13
100
AcDbLine
 10
-91.74124952434056
 20
-49.3510146643492
 30
0.0
 11
-102.2412495243405
 21
-55.41319249084031
 31
0.0
  0
LINE
  5
1A0B
102
{ACAD_REACTORS
330
1AB1
102
}
330
A
100
AcDbEntity
  8
0
370
    13
100
AcDbLine
 10
-92.99124952434056
 20
-50.65005277002591
 30
0.0
 11
-100.9912495243405
 21
-55.26885492354289
 31
0.0
  0
LINE
  5
1A0C
102
{ACAD_REACTORS
330
1AB1
102
}
330
A
100
AcDbEntity
  8
0
370
    13
100
AcDbLine
 10
-94.21688282218417
 20
-60.26563039335424
 30
0.0
 11
-99.76561622649683
 21
-60.26563039335422
 31
0.0
  0
LINE
  5
1A0D
102
{ACAD_REACTORS
330
1AB1
102
}
330
A
100
AcDbEntity
  8
0
370
    13
100
AcDbLine
 10
-102.2412495243405
 20
-27.41319249084031
 30
0.0
 11
-100.9912495243405
 21
-26.11415438516368
 31
0.0
  0
LINE
  5
1A0E
102
{ACAD_REACTORS
330
1AB1
102
}
330
A
100
AcDbEntity
  8
0
370
    13
100
AcDbLine
 10
-102.2412495243405
 20
-48.41319249084031
 30
0.0
 11
-100.9912495243405
 21
-47.11415438516367
 31
0.0
  0
LINE
  5
1A0F
102
{ACAD_REACTORS
330
1AB1
102
}
330
A
100
AcDbEntity
  8
0
370
    13
100
AcDbLine
 10
-102.2412495243405
 20
-48.41319249084031
 30
0.0
 11
-100.9912495243405
 21
-48.26885492354289
 31
0.0
  0
LINE
  5
1A10
102
{ACAD_REACTORS
330
1AB1
102
}
330
A
100
AcDbEntity
  8
0
370
    13
100
AcDbLine
 10
-100.9912495243405
 20
-48.26885492354293
 30
0.0
 11
-100.9912495243405
 21
-54.11415438516364
 31
0.0
  0
LINE
  5
1A11
102
{ACAD_REACTORS
330
1AB1
102
}
330
A
100
AcDbEntity
  8
0
370
    13
100
AcDbLine
 10
-100.9912495243405
 20
-55.69150465435328
 30
0.0
 11
-99.76561622649683
 21
-60.26563039335422
 31
0.0
  0
LINE
  5
1A12
102
{ACAD_REACTORS
330
1AB1
102
}
330
A
100
AcDbEntity
  8
0
370
    13
100
AcDbLine
 10
-102.2412495243405
 20
-55.41319249084031
 30
0.0
 11
-100.9912495243405
 21
-54.11415438516367
 31
0.0
  0
LINE
  5
1A13
102
{ACAD_REACTORS
330
1AB1
102
}
330
A
100
AcDbEntity
  8
0
370
    13
100
AcDbLine
 10
-102.2412495243405
 20
-55.41319249084031
 30
0.0
 11
-100.9912495243405
 21
-55.26885492354289
 31
0.0
  0
LINE
  5
1A14
102
{ACAD_REACTORS
330
1AB1
102
}
330
A
100
AcDbEntity
  8
0
370
    13
100
AcDbLine
 10
-100.9912495243405
 20
-55.26885492354291
 30
0.0
 11
-100.9912495243405
 21
-55.69150465435317
 31
0.0
  0
LINE
  5
1A15
102
{ACAD_REACTORS
330
1AB1
102
}
330
A
100
AcDbEntity
  8
0
370
    13
100
AcDbLine
 10
-100.9912495243405
 20
-34.26885492354295
 30
0.0
 11
-100.9912495243405
 21
-40.11415438516368
 31
0.0
  0
LINE
  5
1A16
102
{ACAD_REACTORS
330
1AB1
102
}
330
A
100
AcDbEntity
  8
0
370
    13
100
AcDbLine
 10
-102.2412495243405
 20
-41.4131924908403
 30
0.0
 11
-100.9912495243405
 21
-40.11415438516368
 31
0.0
  0
LINE
  5
1A17
102
{ACAD_REACTORS
330
1AB1
102
}
330
A
100
AcDbEntity
  8
0
370
    13
100
AcDbLine
 10
-102.2412495243405
 20
-41.4131924908403
 30
0.0
 11
-100.9912495243405
 21
-41.26885492354289
 31
0.0
  0
LINE
  5
1A18
102
{ACAD_REACTORS
330
1AB1
102
}
330
A
100
AcDbEntity
  8
0
370
    13
100
AcDbLine
 10
-100.9912495243405
 20
-41.26885492354293
 30
0.0
 11
-100.9912495243405
 21
-47.11415438516367
 31
0.0
  0
LINE
  5
1A19
102
{ACAD_REACTORS
330
1AB1
102
}
330
A
100
AcDbEntity
  8
0
370
    13
100
AcDbLine
 10
-102.2412495243405
 20
-34.41319249084031
 30
0.0
 11
-100.9912495243405
 21
-33.11415438516368
 31
0.0
  0
LINE
  5
1A1A
102
{ACAD_REACTORS
330
1AB1
102
}
330
A
100
AcDbEntity
  8
0
370
    13
100
AcDbLine
 10
-102.2412495243405
 20
-34.41319249084031
 30
0.0
 11
-100.9912495243405
 21
-34.26885492354289
 31
0.0
  0
LINE
  5
1A1B
102
{ACAD_REACTORS
330
1AB1
102
}
330
A
100
AcDbEntity
  8
0
370
    13
100
AcDbLine
 10
-102.2412495243405
 20
-27.41319249084031
 30
0.0
 11
-100.9912495243405
 21
-27.2688549235429
 31
0.0
  0
LINE
  5
1A1C
102
{ACAD_REACTORS
330
1AB1
102
}
330
A
100
AcDbEntity
  8
0
370
    13
100
AcDbLine
 10
-100.9912495243405
 20
-27.26885492354292
 30
0.0
 11
-100.9912495243405
 21
-33.11415438516376
 31
0.0
  0
LINE
  5
1A1D
102
{ACAD_REACTORS
330
1AB1
102
}
330
A
100
AcDbEntity
  8
0
370
    13
100
AcDbLine
 10
-100.9912495243405
 20
-13.26885492354289
 30
0.0
 11
-100.9912495243405
 21
-19.11415438516376
 31
0.0
  0
LINE
  5
1A1E
102
{ACAD_REACTORS
330
1AB1
102
}
330
A
100
AcDbEntity
  8
0
370
    13
100
AcDbLine
 10
-102.2412495243405
 20
-20.4131924908403
 30
0.0
 11
-100.9912495243405
 21
-20.26885492354289
 31
0.0
  0
LINE
  5
1A1F
102
{ACAD_REACTORS
330
1AB1
102
}
330
A
100
AcDbEntity
  8
0
370
    13
100
AcDbLine
 10
-102.2412495243405
 20
-20.4131924908403
 30
0.0
 11
-100.9912495243405
 21
-19.11415438516367
 31
0.0
  0
LINE
  5
1A20
102
{ACAD_REACTORS
330
1AB1
102
}
330
A
100
AcDbEntity
  8
0
370
    13
100
AcDbLine
 10
-100.9912495243405
 20
-20.26885492354289
 30
0.0
 11
-100.9912495243405
 21
-26.11415438516373
 31
0.0
  0
LINE
  5
1A21
102
{ACAD_REACTORS
330
1AB1
102
}
330
A
100
AcDbEntity
  8
0
370
    13
100
AcDbLine
 10
-102.2412495243405
 20
-13.41319249084031
 30
0.0
 11
-100.9912495243405
 21
-13.26885492354289
 31
0.0
  0
LINE
  5
1A22
102
{ACAD_REACTORS
330
1AB1
102
}
330
A
100
AcDbEntity
  8
0
370
    13
100
AcDbLine
 10
-102.2412495243405
 20
-13.41319249084031
 30
0.0
 11
-100.9912495243405
 21
-12.11415438516368
 31
0.0
  0
LINE
  5
1A23
102
{ACAD_REACTORS
330
1AB1
102
}
330
A
100
AcDbEntity
  8
0
370
    13
100
AcDbLine
 10
-92.99124952434056
 20
-22.65005277002588
 30
0.0
 11
-92.99124952434056
 21
-28.49535223164664
 31
0.0
  0
LINE
  5
1A24
102
{ACAD_REACTORS
330
1AB1
102
}
330
A
100
AcDbEntity
  8
0
370
    13
100
AcDbLine
 10
-92.99124952434056
 20
-43.65005277002588
 30
0.0
 11
-92.99124952434056
 21
-49.49535223164662
 31
0.0
  0
LINE
  5
1A25
102
{ACAD_REACTORS
330
1AB1
102
}
330
A
100
AcDbEntity
  8
0
370
    13
100
AcDbLine
 10
-92.99124952434056
 20
-55.69150465435328
 30
0.0
 11
-94.21688282218417
 21
-60.26563039335422
 31
0.0
  0
LINE
  5
1A26
102
{ACAD_REACTORS
330
1AB1
102
}
330
A
100
AcDbEntity
  8
0
370
    13
100
AcDbLine
 10
-92.99124952434056
 20
-50.65005277002594
 30
0.0
 11
-92.99124952434056
 21
-55.69150465435337
 31
0.0
  0
LINE
  5
1A27
102
{ACAD_REACTORS
330
1AB1
102
}
330
A
100
AcDbEntity
  8
0
370
    13
100
AcDbLine
 10
-91.74124952434056
 20
-49.3510146643492
 30
0.0
 11
-92.99124952434056
 21
-49.49535223164661
 31
0.0
  0
LINE
  5
1A28
102
{ACAD_REACTORS
330
1AB1
102
}
330
A
100
AcDbEntity
  8
0
370
    13
100
AcDbLine
 10
-91.74124952434056
 20
-49.3510146643492
 30
0.0
 11
-92.99124952434056
 21
-50.65005277002586
 31
0.0
  0
LINE
  5
1A29
102
{ACAD_REACTORS
330
1AB1
102
}
330
A
100
AcDbEntity
  8
0
370
    13
100
AcDbLine
 10
-92.99124952434056
 20
-36.65005277002591
 30
0.0
 11
-92.99124952434056
 21
-42.49535223164661
 31
0.0
  0
LINE
  5
1A2A
102
{ACAD_REACTORS
330
1AB1
102
}
330
A
100
AcDbEntity
  8
0
370
    13
100
AcDbLine
 10
-91.74124952434056
 20
-42.3510146643492
 30
0.0
 11
-92.99124952434056
 21
-43.65005277002586
 31
0.0
  0
LINE
  5
1A2B
102
{ACAD_REACTORS
330
1AB1
102
}
330
A
100
AcDbEntity
  8
0
370
    13
100
AcDbLine
 10
-91.74124952434056
 20
-42.3510146643492
 30
0.0
 11
-92.99124952434056
 21
-42.49535223164661
 31
0.0
  0
LINE
  5
1A2C
102
{ACAD_REACTORS
330
1AB1
102
}
330
A
100
AcDbEntity
  8
0
370
    13
100
AcDbLine
 10
-92.99124952434056
 20
-29.65005277002594
 30
0.0
 11
-92.99124952434056
 21
-35.49535223164664
 31
0.0
  0
LINE
  5
1A2D
102
{ACAD_REACTORS
330
1AB1
102
}
330
A
100
AcDbEntity
  8
0
370
    13
100
AcDbLine
 10
-91.74124952434056
 20
-35.3510146643492
 30
0.0
 11
-92.99124952434056
 21
-35.49535223164661
 31
0.0
  0
LINE
  5
1A2E
102
{ACAD_REACTORS
330
1AB1
102
}
330
A
100
AcDbEntity
  8
0
370
    13
100
AcDbLine
 10
-91.74124952434056
 20
-35.3510146643492
 30
0.0
 11
-92.99124952434056
 21
-36.65005277002586
 31
0.0
  0
LINE
  5
1A2F
102
{ACAD_REACTORS
330
1AB1
102
}
330
A
100
AcDbEntity
  8
0
370
    13
100
AcDbLine
 10
-91.74124952434056
 20
-28.3510146643492
 30
0.0
 11
-92.99124952434056
 21
-28.49535223164661
 31
0.0
  0
LINE
  5
1A30
102
{ACAD_REACTORS
330
1AB1
102
}
330
A
100
AcDbEntity
  8
0
370
    13
100
AcDbLine
 10
-91.74124952434056
 20
-28.3510146643492
 30
0.0
 11
-92.99124952434056
 21
-29.65005277002585
 31
0.0
  0
LINE
  5
1A31
102
{ACAD_REACTORS
330
1AB1
102
}
330
A
100
AcDbEntity
  8
0
370
    13
100
AcDbLine
 10
-92.99124952434056
 20
-15.65005277002594
 30
0.0
 11
-92.99124952434056
 21
-21.49535223164664
 31
0.0
  0
LINE
  5
1A32
102
{ACAD_REACTORS
330
1AB1
102
}
330
A
100
AcDbEntity
  8
0
370
    13
100
AcDbLine
 10
-91.74124952434056
 20
-21.3510146643492
 30
0.0
 11
-92.99124952434056
 21
-22.65005277002586
 31
0.0
  0
LINE
  5
1A33
102
{ACAD_REACTORS
330
1AB1
102
}
330
A
100
AcDbEntity
  8
0
370
    13
100
AcDbLine
 10
-91.74124952434056
 20
-21.3510146643492
 30
0.0
 11
-92.99124952434056
 21
-21.49535223164661
 31
0.0
  0
LINE
  5
1A34
102
{ACAD_REACTORS
330
1AB1
102
}
330
A
100
AcDbEntity
  8
0
370
    13
100
AcDbLine
 10
-92.99124952434056
 20
-8.650052770025915
 30
0.0
 11
-92.99124952434056
 21
-14.49535223164661
 31
0.0
  0
LINE
  5
1A35
102
{ACAD_REACTORS
330
1AB1
102
}
330
A
100
AcDbEntity
  8
0
370
    13
100
AcDbLine
 10
-91.74124952434056
 20
-14.3510146643492
 30
0.0
 11
-92.99124952434056
 21
-14.49535223164661
 31
0.0
  0
LINE
  5
1A36
102
{ACAD_REACTORS
330
1AB1
102
}
330
A
100
AcDbEntity
  8
0
370
    13
100
AcDbLine
 10
-91.74124952434056
 20
-14.3510146643492
 30
0.0
 11
-92.99124952434056
 21
-15.65005277002585
 31
0.0
  0
LINE
  5
1A37
102
{ACAD_REACTORS
330
1AB1
102
}
330
A
100
AcDbEntity
  8
0
370
    13
100
AcDbLine
 10
-91.74124952434056
 20
-7.3510146643492
 30
0.0
 11
-92.99124952434056
 21
-8.650052770025858
 31
0.0
  0
LINE
  5
1A38
102
{ACAD_REACTORS
330
1AB1
102
}
330
A
100
AcDbEntity
  8
0
370
    13
100
AcDbLine
 10
-91.74124952434056
 20
-7.3510146643492
 30
0.0
 11
-92.99124952434056
 21
-7.495352231646613
 31
0.0
  0
ARC
  5
1A39
102
{ACAD_REACTORS
330
1AB1
102
}
330
A
100
AcDbEntity
  8
0
370
    13
100
AcDbCircle
 10
-96.99124952434056
 20
21.71246415518832
 30
0.0
 40
16.05432595988109
100
AcDbArc
 50
75.64442930541459
 51
104.3555706945854
  0
LINE
  5
1A3A
102
{ACAD_REACTORS
330
1AB1
102
}
330
A
100
AcDbEntity
  8
0
370
    13
100
AcDbLine
 10
-91.39529477054612
 20
37.76676088969495
 30
0.0
 11
-102.5259380871951
 21
37.76676088969396
 31
0.0
  0
DIMENSION
  5
1A3B
330
A
100
AcDbEntity
  8
寸法
370
    13
100
AcDbDimension
  2
*D4
 10
-91.49124952434048
 20
20.73529525281105
 30
0.0
 11
-96.99124952434049
 21
22.73529525281105
 31
0.0
 70
    32
  1
%%c<>
 71
     5
 42
11.0
  3
ISO-25 1／10
100
AcDbAlignedDimension
 13
-102.4912495243404
 23
26.73463851553377
 33
0.0
 14
-91.49124952434048
 24
26.73514413970282
 34
0.0
100
AcDbRotatedDimension
1001
ACAD
1000
DSTYLE
1002
{
1070
   279
1070
     1
1002
}
  0
DIMENSION
  5
1A3E
330
A
100
AcDbEntity
  8
寸法
370
    13
100
AcDbDimension
  2
*D2
 10
-84.49124952434049
 20
15.73529535046731
 30
0.0
 11
-96.99124952434049
 21
17.73529535046731
 31
0.0
 70
    32
  1
%%c<>
 71
     5
 42
25.0
  3
ISO-25 1／10
100
AcDbAlignedDimension
 13
-109.4912495243404
 23
36.33343780509717
 33
0.0
 14
-84.49124952434049
 24
36.28835522449557
 34
0.0
100
AcDbRotatedDimension
1001
ACAD
1000
DSTYLE
1002
{
1070
   279
1070
     1
1002
}
  0
LINE
  5
1A3F
102
{ACAD_REACTORS
330
1AB1
102
}
330
A
100
AcDbEntity
  8
0
370
    13
100
AcDbLine
 10
-88.251052439815
 20
29.73436960664578
 30
0.0
 11
-105.731446608866
 21
29.73436960664578
 31
0.0
  0
LINE
  5
1A40
102
{ACAD_REACTORS
330
1AB1
102
}
330
A
100
AcDbEntity
  8
0
370
    13
100
AcDbLine
 10
-88.251052439815
 20
31.70624854778214
 30
0.0
 11
-105.731446608866
 21
31.70624854778214
 31
0.0
  0
LINE
  5
1A41
102
{ACAD_REACTORS
330
1AB1
102
}
330
A
100
AcDbEntity
  8
0
370
    13
100
AcDbLine
 10
-100.9717388199162
 20
31.70624854778214
 30
0.0
 11
-100.9717388199162
 21
37.26550524025973
 31
0.0
  0
LINE
  5
1A42
102
{ACAD_REACTORS
330
1AB1
102
}
330
A
100
AcDbEntity
  8
0
370
    13
100
AcDbLine
 10
-104.0800706042718
 20
31.70624854778214
 30
0.0
 11
-104.0800706042718
 21
37.26550524025973
 31
0.0
  0
LINE
  5
1A46
102
{ACAD_REACTORS
330
1AB1
102
}
330
A
100
AcDbEntity
  8
0
370
    13
100
AcDbLine
 10
-105.731446608866
 20
31.70624854778214
 30
0.0
 11
-105.731446608866
 21
29.73436960664578
 31
0.0
  0
SPLINE
  5
1A47
102
{ACAD_REACTORS
330
1AB1
102
}
330
A
100
AcDbEntity
  8
0
370
    13
100
AcDbSpline
210
0.0
220
0.0
230
1.0
 70
     8
 71
     3
 72
     8
 73
     4
 74
     0
 42
0.0000000001
 43
0.0000000001
 40
0.0
 40
0.0
 40
0.0
 40
0.0
 40
1.0
 40
1.0
 40
1.0
 40
1.0
 10
-100.9717388199162
 20
37.2655052402597
 30
0.0
 10
-101.9004456232447
 20
37.93384611859316
 30
0.0
 10
-103.1520471760746
 20
37.93384611859316
 30
0.0
 10
-104.080070604272
 20
37.2655052402597
 30
0.0
  0
LINE
  5
1A49
102
{ACAD_REACTORS
330
1AB1
102
}
330
A
100
AcDbEntity
  8
0
370
    13
100
AcDbLine
 10
-89.90242844440912
 20
31.70624854778214
 30
0.0
 11
-89.90242844440912
 21
37.26550524025973
 31
0.0
  0
LINE
  5
1A4B
102
{ACAD_REACTORS
330
1AB1
102
}
330
A
100
AcDbEntity
  8
0
370
    13
100
AcDbLine
 10
-93.01076022876486
 20
31.70624854778214
 30
0.0
 11
-93.01076022876486
 21
37.26550524025973
 31
0.0
  0
LINE
  5
1A4E
102
{ACAD_REACTORS
330
1AB1
102
}
330
A
100
AcDbEntity
  8
0
370
    13
100
AcDbLine
 10
-88.251052439815
 20
29.73436960664578
 30
0.0
 11
-88.251052439815
 21
31.70624854778214
 31
0.0
  0
SPLINE
  5
1A52
102
{ACAD_REACTORS
330
1AB1
102
}
330
A
100
AcDbEntity
  8
0
370
    13
100
AcDbSpline
210
0.0
220
0.0
230
1.0
 70
     8
 71
     3
 72
     8
 73
     4
 74
     0
 42
0.0000000001
 43
0.0000000001
 40
0.0
 40
0.0
 40
0.0
 40
0.0
 40
1.0
 40
1.0
 40
1.0
 40
1.0
 10
-93.01076022876475
 20
37.2655052402597
 30
0.0
 10
-92.08205342543635
 20
37.93384611859316
 30
0.0
 10
-90.83045187260632
 20
37.93384611859316
 30
0.0
 10
-89.90242844440912
 20
37.2655052402597
 30
0.0
  0
LINE
  5
1AD8
330
A
100
AcDbEntity
  8
0
370
    13
100
AcDbLine
 10
-109.4912495243404
 20
39.33316889620917
 30
0.0
 11
-109.4912495243404
 21
36.33343780509717
 31
0.0
  0
LINE
  5
1AD9
330
A
100
AcDbEntity
  8
0
370
    13
100
AcDbLine
 10
-84.49124952434049
 20
39.38672224495732
 30
0.0
 11
-84.49124952434049
 21
36.28835522449558
 31
0.0
  0
LINE
  5
1AFE
330
A
100
AcDbEntity
  8
0
370
    13
100
AcDbLine
 10
-91.49124952434048
 20
29.73436960664577
 30
0.0
 11
-91.49124952434048
 21
26.73463851553377
 31
0.0
  0
LINE
  5
1AFF
330
A
100
AcDbEntity
  8
0
370
    13
100
AcDbLine
 10
-102.4912495243404
 20
29.73436960664577
 30
0.0
 11
-102.4912495243404
 21
26.73463851553377
 31
0.0
  0
DIMENSION
  5
1B00
330
A
100
AcDbEntity
  8
寸法
370
    13
100
AcDbDimension
  2
*D5
 10
-56.3895927988355
 20
25.73529515515482
 30
0.0
 11
-58.38959279883551
 21
32.53536415564554
 31
0.0
 70
    32
 71
     5
 42
13.60013800098146
  3
ISO-25 1／10
100
AcDbAlignedDimension
 13
-84.85648182931344
 23
39.33543315613629
 33
0.0
 14
-61.97645690720623
 24
25.73529515515482
 34
0.0
 50
270.0
100
AcDbRotatedDimension
1001
ACAD
1000
DSTYLE
1002
{
1070
   279
1070
     1
1002
}
  0
ENDSEC
  0
SECTION
  2
OBJECTS
  0
DICTIONARY
  5
19
330
0
100
AcDbDictionary
281
     1
  3
ACAD_GROUP
350
1A
  3
ACAD_IMAGE_VARS
350
10AD
  3
ACAD_LAYOUT
350
1E
  3
ACAD_MLINESTYLE
350
1B
  3
ACAD_PLOTSETTINGS
350
22
  3
ACAD_PLOTSTYLENAME
350
1F
  3
ACAD_WIPEOUT_VARS
350
23
  0
DICTIONARY
  5
1171
330
2
100
AcDbDictionary
280
     1
281
     1
  3
ACAD_LAYERFILTERS
360
1172
  0
DICTIONARY
  5
1A
102
{ACAD_REACTORS
330
19
102
}
330
19
100
AcDbDictionary
281
     1
  3
*A1
350
17EF
  3
*A2
350
182B
  3
*A3
350
18B4
  3
*A4
350
18B5
  3
*A5
350
18B7
  3
*A6
350
1926
  3
*A7
350
199B
  3
*A8
350
1AB1
  0
RASTERVARIABLES
  5
10AD
102
{ACAD_REACTORS
330
19
102
}
330
19
100
AcDbRasterVariables
 90
        0
 70
     1
 71
     1
 72
     0
  0
DICTIONARY
  5
1E
102
{ACAD_REACTORS
330
19
102
}
330
19
100
AcDbDictionary
281
     1
  3
Layout1
350
21
  3
Model
350
20
  0
DICTIONARY
  5
1B
102
{ACAD_REACTORS
330
19
102
}
330
19
100
AcDbDictionary
281
     1
  3
Standard
350
1C
  0
DICTIONARY
  5
22
102
{ACAD_REACTORS
330
19
102
}
330
19
100
AcDbDictionary
281
     1
  0
ACDBDICTIONARYWDFLT
  5
1F
102
{ACAD_REACTORS
330
19
102
}
330
19
100
AcDbDictionary
281
     1
  3
Normal
350
1D
100
AcDbDictionaryWithDefault
340
1D
  0
ACAD_PROXY_OBJECT
  5
23
330
19
100
AcDbProxyObject
 90
      499
 91
      521
 95
   393239
 70
     0
 93
       10
310
4044
 94
        0
  0
DICTIONARY
  5
1172
102
{ACAD_REACTORS
330
1171
102
}
330
1171
100
AcDbDictionary
280
     1
281
     1
  3
-100
360
1173
  3
-50
360
1174
  3
-ben
360
1175
  3
-H
360
1176
  3
-T
360
1177
  3
$
360
1178
  3
$0$
360
1179
  3
0
360
117A
  3
0-
360
117B
  3
00
360
117C
  3
01
360
117D
  3
01KUTAI
360
117E
  3
01全体計画平面図
360
117F
  3
02現況平面図
360
1180
  3
03撤去平面図
360
1181
  3
04造成平面図
360
1182
  3
05
360
1183
  3
05施設平面図
360
1184
  3
06
360
1185
  3
06siki
360
1186
  3
06siki2
360
1187
  3
06排水平面図
360
1188
  3
07
360
1189
  3
07給水平面図
360
118A
  3
0割付平面図
360
118B
  3
0潅水平面
360
118C
  3
0計画平面
360
118D
  3
0高木植栽
360
118E
  3
0施設平面
360
118F
  3
0床内
360
1190
  3
0床壁
360
1191
  3
0照明配置図
360
1192
  3
0詳細図
360
1193
  3
0植栽基盤
360
1194
  3
0全体工区区分図
360
1195
  3
0総合図off
360
1196
  3
0総合図枠
360
1197
  3
0低木
360
1198
  3
0排水平面
360
1199
  3
0平詳枠
360
119A
  3
0擁壁平面図
360
119B
  3
1
360
119C
  3
10
360
119D
  3
100
360
119E
  3
10植栽平面図
360
119F
  3
11
360
11A0
  3
1111
360
11A1
  3
11寸法図
360
11A2
  3
12
360
11A3
  3
19
360
11A4
  3
１Ｆ床伏OFF
360
11A5
  3
1階
360
11A6
  3
1床
360
11A7
  3
1芯
360
11A8
  3
1芯線
360
11A9
  3
20
360
11AA
  3
21
360
11AB
  3
250
360
11AC
  3
2fmiage
360
11AD
  3
2躯体
360
11AE
  3
2断面
360
11AF
  3
2壁
360
11B0
  3
300
360
11B1
  3
32
360
11B2
  3
333
360
11B3
  3
37
360
11B4
  3
3D
360
11B5
  3
3開口
360
11B6
  3
3見掛り
360
11B7
  3
3天井内
360
11B8
  3
41
360
11B9
  3
4仕上げ
360
11BA
  3
4天井
360
11BB
  3
5
360
11BC
  3
50
360
11BD
  3
50off
360
11BE
  3
51-52
360
11BF
  3
555
360
11C0
  3
5寸法
360
11C1
  3
5文字
360
11C2
  3
6
360
11C3
  3
66-躯体図
360
11C4
  3
66躯体図
360
11C5
  3
6記号
360
11C6
  3
6文字
360
11C7
  3
6保留
360
11C8
  3
767
360
11C9
  3
767SE13-0...$
360
11CA
  3
767SE13-07-99$0$
360
11CB
  3
7記号
360
11CC
  3
8
360
11CD
  3
8寸法
360
11CE
  3
8設備
360
11CF
  3
9文字
360
11D0
  3
9目地
360
11D1
  3
A
360
11D2
  3
A-
360
11D3
  3
A(枠･表)を表示
360
11D4
  3
A01
360
11D5
  3
A1.DEMO-KEY NOTE
360
11D6
  3
A2. CONS-KEY NOTE
360
11D7
  3
A21
360
11D8
  3
A3
360
11D9
  3
A3. RCP-LAYER
360
11DA
  3
A3D. RCP_DEMO-KEY NOTE
360
11DB
  3
A4. P&T- KEY NOTE
360
11DC
  3
A4D. EL_DEMO-KEY NOTE
360
11DD
  3
A5. FINISH-KEY NOTE
360
11DE
  3
A6. FURN-KEY NOTE
360
11DF
  3
aa
360
11E0
  3
aaa
360
11E1
  3
AB棟
360
11E2
  3
ＡＢ棟
360
11E3
  3
ACTIVE
360
11E4
  3
ACTIVE2
360
11E5
  3
ALC
360
11E6
  3
ALL
360
11E7
  3
all選択
360
11E8
  3
AMENAGEMENT
360
11E9
  3
AQ
360
11EA
  3
ARBOL
360
11EB
  3
AREA
360
11EC
  3
AREA-SG
360
11ED
  3
AS1
360
11EE
  3
aハッチング
360
11EF
  3
A空調
360
11F0
  3
B
360
11F1
  3
B(基準)を表示
360
11F2
  3
B2
360
11F3
  3
B3
360
11F4
  3
BAL
360
11F5
  3
baru
360
11F6
  3
baru2
360
11F7
  3
BASE
360
11F8
  3
bb
360
11F9
  3
bbbb
360
11FA
  3
beam
360
11FB
  3
blocchi
360
11FC
  3
blue
360
11FD
  3
BSM
360
11FE
  3
b階段
360
11FF
  3
B電気
360
1200
  3
c
360
1201
  3
c-block
360
1202
  3
c-block-2
360
1203
  3
C(寸･文･記)を表示
360
1204
  3
cajetin
360
1205
  3
cc
360
1206
  3
CD06
360
1207
  3
ＣＤ棟
360
1208
  3
ceiling
360
1209
  3
CEILINGS XREF
360
120A
  3
CEL
360
120B
  3
che
360
120C
  3
chika
360
120D
  3
CLG
360
120E
  3
COL
360
120F
  3
cold beam
360
1210
  3
colu
360
1211
  3
com
360
1212
  3
con
360
1213
  3
CRG
360
1214
  3
cyan
360
1215
  3
C衛生
360
1216
  3
C街区関連
360
1217
  3
c雑金物
360
1218
  3
C打計画図
360
1219
  3
D
360
121A
  3
D(表現補助)を表示
360
121B
  3
Ｄ・墓地　施設平面
360
121C
  3
D16
360
121D
  3
DASHED
360
121E
  3
DASHED2
360
121F
  3
DEMO
360
1220
  3
DEMOLITION
360
1221
  3
detail
360
1222
  3
details
360
1223
  3
DHED
360
1224
  3
Dim
360
1225
  3
disegno
360
1226
  3
DOORS
360
1227
  3
DR
360
1228
  3
DT
360
1229
  3
d外構
360
122A
  3
Ｄ街区低木
360
122B
  3
D割付平面
360
122C
  3
Ｄ給水設備
360
122D
  3
Ｄ計画高平面
360
122E
  3
Ｄ計画平面
360
122F
  3
Ｄ工事区分
360
1230
  3
Ｄ高木植栽
360
1231
  3
Ｄ施設平面
360
1232
  3
Ｄ照明設備
360
1233
  3
Ｄ低木
360
1234
  3
Ｄ電気設備
360
1235
  3
Ｄ土壌改良
360
1236
  3
Ｄ排水平面
360
1237
  3
D舗装平面
360
1238
  3
Ｄ墓地施設平面
360
1239
  3
D墓地排水
360
123A
  3
E
360
123B
  3
E(点線系)を表示
360
123C
  3
EEEE
360
123D
  3
EISEI
360
123E
  3
elec
360
123F
  3
ERAS1F
360
1240
  3
existing
360
1241
  3
Exit
360
1242
  3
F
360
1243
  3
F(断面)を表示
360
1244
  3
F1
360
1245
  3
face4
360
1246
  3
FC_CLADDING
360
1247
  3
FENCE
360
1248
  3
FF
360
1249
  3
FH
360
124A
  3
FILTER1
360
124B
  3
fini
360
124C
  3
finish
360
124D
  3
FIRE
360
124E
  3
fixture
360
124F
  3
fl
360
1250
  3
Floor
360
1251
  3
FLOOR PLAN
360
1252
  3
fr
360
1253
  3
freeze
360
1254
  3
FRZ
360
1255
  3
Fugou
360
1256
  3
FUGOU-TATEGU
360
1257
  3
FUKI
360
1258
  3
FURN
360
1259
  3
FURNITURE
360
125A
  3
FUSE_00
360
125B
  3
G
360
125C
  3
G(開口)を表示
360
125D
  3
GAIKOU
360
125E
  3
gel
360
125F
  3
gen
360
1260
  3
gondora
360
1261
  3
green
360
1262
  3
GRID
360
1263
  3
gris
360
1264
  3
H
360
1265
  3
H-
360
1266
  3
H-SIN
360
1267
  3
H(見掛)を表示
360
1268
  3
HA
360
1269
  3
haikin
360
126A
  3
HAISEN
360
126B
  3
HARI
360
126C
  3
hasira
360
126D
  3
HATCH
360
126E
  3
HCP
360
126F
  3
HEISHO
360
1270
  3
HEISHO2
360
1271
  3
HIDDEN
360
1272
  3
HOJO
360
1273
  3
hollywood
360
1274
  3
HOTEL
360
1275
  3
huse
360
1276
  3
HYOKI
360
1277
  3
HYOUKI
360
1278
  3
i
360
1279
  3
I(二次部材系))を表示
360
127A
  3
I2
360
127B
  3
i2cl
360
127C
  3
i5
360
127D
  3
i9
360
127E
  3
in
360
127F
  3
INSERT図
360
1280
  3
ISSUE
360
1281
  3
J
360
1282
  3
K
360
1283
  3
KABE
360
1284
  3
KABESHIN
360
1285
  3
KAGU
360
1286
  3
key
360
1287
  3
KI
360
1288
  3
KIGO
360
1289
  3
KIJUN
360
128A
  3
kiso
360
128B
  3
KSIN
360
128C
  3
kui
360
128D
  3
KUTAI
360
128E
  3
L
360
128F
  3
LEGEND
360
1290
  3
LGS
360
1291
  3
light
360
1292
  3
LIST
360
1293
  3
lixo
360
1294
  3
LOCK
360
1295
  3
LTA
360
1296
  3
Ｌ建具
360
1297
  3
M
360
1298
  3
MA
360
1299
  3
MACONNERIE
360
129A
  3
magenta
360
129B
  3
magenta-bleu
360
129C
  3
maji
360
129D
  3
MAJIKIRI
360
129E
  3
marco
360
129F
  3
MB
360
12A0
  3
meji
360
12A1
  3
merceologico
360
12A2
  3
MILL
360
12A3
  3
MILLWORK
360
12A4
  3
miwa
360
12A5
  3
MOJI
360
12A6
  3
MOJI100
360
12A7
  3
N
360
12A8
  3
N-
360
12A9
  3
NAM
360
12AA
  3
NEW
360
12AB
  3
NHK
360
12AC
  3
no xref
360
12AD
  3
note
360
12AE
  3
NUM
360
12AF
  3
NUMB
360
12B0
  3
O
360
12B1
  3
OF
360
12B2
  3
OFF
360
12B3
  3
on
360
12B4
  3
option 1
360
12B5
  3
option 2
360
12B6
  3
OUTLINE
360
12B7
  3
P
360
12B8
  3
pa
360
12B9
  3
PALFOND
360
12BA
  3
PAT
360
12BB
  3
PC
360
12BC
  3
PISO
360
12BD
  3
PLAN
360
12BE
  3
PLMB
360
12BF
  3
plot
360
12C0
  3
PLUMB
360
12C1
  3
PNL
360
12C2
  3
power
360
12C3
  3
PRT
360
12C4
  3
q
360
12C5
  3
R
360
12C6
  3
rack
360
12C7
  3
RC
360
12C8
  3
RCP
360
12C9
  3
rm
360
12CA
  3
RMTAGS
360
12CB
  3
RNUM
360
12CC
  3
ROOM
360
12CD
  3
roomno
360
12CE
  3
rouge
360
12CF
  3
rtkl
360
12D0
  3
S
360
12D1
  3
saciencewold
360
12D2
  3
SETUBI
360
12D3
  3
SHITU
360
12D4
  3
SHITUMEI
360
12D5
  3
SIAG
360
12D6
  3
SIAG-N
360
12D7
  3
SIAG3
360
12D8
  3
sin
360
12D9
  3
Sinm
360
12DA
  3
SITA
360
12DB
  3
siyah
360
12DC
  3
SS
360
12DD
  3
ST
360
12DE
  3
STA
360
12DF
  3
stairs
360
12E0
  3
SUGA5
360
12E1
  3
SUNP
360
12E2
  3
SUNP100
360
12E3
  3
T
360
12E4
  3
TAKASA
360
12E5
  3
TATE161
360
12E6
  3
TATEGU
360
12E7
  3
ten
360
12E8
  3
TENJYOU
360
12E9
  3
TENJYOUNAI
360
12EA
  3
test
360
12EB
  3
text
360
12EC
  3
thaw
360
12ED
  3
TITL
360
12EE
  3
tnjyou
360
12EF
  3
tori
360
12F0
  3
TORISHIN
360
12F1
  3
tr
360
12F2
  3
TSIN
360
12F3
  3
TXT
360
12F4
  3
UNFREEZ
360
12F5
  3
UNROCK
360
12F6
  3
wada
360
12F7
  3
waku
360
12F8
  3
X
360
12F9
  3
X(敷地)を表示
360
12FA
  3
xref
360
12FB
  3
YAJI
360
12FC
  3
yellow
360
12FD
  3
YUKA
360
12FE
  3
yその他
360
12FF
  3
Z
360
1300
  3
ZATU
360
1301
  3
z図枠
360
1302
  3
к
360
1303
  3
перегородки
360
1304
  3
イベント給水
360
1305
  3
ガラス
360
1306
  3
キ-プラン
360
1307
  3
キープラン
360
1308
  3
さーくる
360
1309
  3
シェルター
360
130A
  3
すべてに反映
360
130B
  3
スロープ
360
130C
  3
タイル割付平面図
360
130D
  3
ﾃｷｽﾄのみ表示
360
130E
  3
ハッチング
360
130F
  3
フリーズ
360
1310
  3
フリーズof
360
1311
  3
ﾌﾘｰｽﾞ画層非表示
360
1312
  3
ﾌﾘｰｽﾞ画面非表示
360
1313
  3
ﾌﾘｰｽﾞ解除
360
1314
  3
フリーズ解除
360
1315
  3
ﾌﾟﾚｾﾞﾝ枠
360
1316
  3
マーク
360
1317
  3
ﾒｲﾝﾌﾟﾗｻﾞ
360
1318
  3
レベル
360
1319
  3
ロック
360
131A
  3
一括非表示
360
131B
  3
一般図
360
131C
  3
印刷
360
131D
  3
荏原機器
360
131E
  3
荏原機器基礎
360
131F
  3
衛生設備図
360
1320
  3
黄色
360
1321
  3
下階
360
1322
  3
下地
360
1323
  3
外構
360
1324
  3
外部参照－建築
360
1325
  3
外部参照除く
360
1326
  3
割り付け平面図
360
1327
  3
割付平面図
360
1328
  3
潅水平面
360
1329
  3
基
360
132A
  3
基準
360
132B
  3
基準階
360
132C
  3
基礎OFF
360
132D
  3
基礎伏
360
132E
  3
基礎伏図
360
132F
  3
基盤改良平面図
360
1330
  3
既存杭
360
1331
  3
機器
360
1332
  3
機器基礎
360
1333
  3
記号
360
1334
  3
給水設備平面図
360
1335
  3
給水平面
360
1336
  3
区画
360
1337
  3
躯体
360
1338
  3
躯体図
360
1339
  3
空調jv
360
133A
  3
空調設備図
360
133B
  3
郡川
360
133C
  3
型枠計画図
360
133D
  3
計画高平面図
360
133E
  3
計画平面
360
133F
  3
計画平面図
360
1340
  3
劇場ﾌﾟﾗｻﾞ
360
1341
  3
劇場棟
360
1342
  3
建具
360
1343
  3
建築接地図
360
1344
  3
見上げ
360
1345
  3
現在非表示画層
360
1346
  3
光天井
360
1347
  3
公園
360
1348
  3
工事区分図
360
1349
  3
工事区分図AB
360
134A
  3
工事区分図CD
360
134B
  3
高さ
360
134C
  3
高木植栽平面
360
134D
  3
高木平面図
360
134E
  3
座席のみ
360
134F
  3
作業
360
1350
  3
参考
360
1351
  3
山止根切計画図
360
1352
  3
仕
360
1353
  3
仕上
360
1354
  3
仕上図
360
1355
  3
使用中
360
1356
  3
施設配置図
360
1357
  3
施設平面
360
1358
  3
施設平面図
360
1359
  3
紫
360
135A
  3
床伏図
360
135B
  3
昇降機
360
135C
  3
照明
360
135D
  3
照明Ｃ１
360
135E
  3
照明Ｃ２
360
135F
  3
照明配置図
360
1360
  3
詳細
360
1361
  3
詳細図
360
1362
  3
上階躯体図
360
1363
  3
植栽
360
1364
  3
植栽基盤平面
360
1365
  3
植栽現況
360
1366
  3
植栽高木AB
360
1367
  3
植栽高木CD
360
1368
  3
植栽低木AB
360
1369
  3
植栽低木ＣＤ
360
136A
  3
色番号8
360
136B
  3
申請用
360
136C
  3
芯
360
136D
  3
芯関係
360
136E
  3
水
360
136F
  3
水色
360
1370
  3
寸法
360
1371
  3
製作
360
1372
  3
製作-躯体
360
1373
  3
製作-建築
360
1374
  3
製作-昇降機
360
1375
  3
青
360
1376
  3
設備
360
1377
  3
設備プロット
360
1378
  3
全階平面図
360
1379
  3
総合仮設図
360
137A
  3
総合図
360
137B
  3
足場計画図
360
137C
  3
地下埋設
360
137D
  3
中野
360
137E
  3
低木植栽平面
360
137F
  3
低木平面図
360
1380
  3
鉄骨
360
1381
  3
鉄骨建方計画図
360
1382
  3
天井インサート図
360
1383
  3
天井総合図
360
1384
  3
天井伏図
360
1385
  3
天伏
360
1386
  3
電気設備図
360
1387
  3
土壌改良
360
1388
  3
土木計画平面図
360
1389
  3
道路
360
138A
  3
道路関係図
360
138B
  3
排水
360
138C
  3
排水設備平面図
360
138D
  3
排水平面
360
138E
  3
配管
360
138F
  3
非表示
360
1390
  3
非表示ﾚｲﾔｰ
360
1391
  3
表示
360
1392
  3
表示・非表示
360
1393
  3
表示2
360
1394
  3
分割枠
360
1395
  3
平面詳細図
360
1396
  3
平面図
360
1397
  3
平面総合図
360
1398
  3
変更分
360
1399
  3
舗装平面
360
139A
  3
舗装平面C1
360
139B
  3
舗装平面C2
360
139C
  3
舗装平面図
360
139D
  3
法規チェック－区画
360
139E
  3
法規チェック－範囲
360
139F
  3
鳳文字入力
360
13A0
  3
防災
360
13A1
  3
名称
360
13A2
  3
面積
360
13A3
  3
擁壁平面図
360
13A4
  3
用途色塗
360
13A5
  3
立面図
360
13A6
  3
梁
360
13A7
  3
緑
360
13A8
  0
GROUP
  5
17EF
102
{ACAD_REACTORS
330
1A
102
}
330
1A
100
AcDbGroup
300

 70
     1
 71
     1
340
10E7
340
10E6
340
29A
340
204
340
262
340
1F8
340
205
340
10DC
340
1EB
340
1E7
340
2A2
340
258
340
22F
340
1EF
340
1F3
340
22D
340
25E
340
215
340
25A
340
10B7
340
10B2
340
10B3
340
211
340
10B5
340
212
340
213
340
10B8
340
25C
340
25B
340
25D
340
10B9
340
1F2
340
1F1
340
10BA
340
20F
340
1E9
340
20E
340
10BB
340
10BC
340
10B6
340
1E8
340
10BD
340
10BE
340
2A8
340
22C
340
2A9
340
22A
340
22B
340
2AA
340
1F9
340
2A7
340
261
340
25F
340
260
340
1F5
340
1EE
340
1F4
340
2A6
340
10DD
340
10DA
340
2A4
340
10DB
340
10E1
340
10E0
340
21C
340
217
340
224
340
220
340
1ED
340
222
340
10BF
340
223
340
10C0
340
1E6
340
10C1
340
10C2
340
10C7
340
227
340
21D
340
10B1
340
225
340
10C3
340
226
340
10C4
340
21F
340
10B0
340
10AF
340
10C8
340
10C6
340
10C5
340
233
340
247
340
243
340
219
340
245
340
218
340
10C9
340
10CA
340
21B
340
232
340
21A
340
231
340
230
340
244
340
254
340
249
340
251
340
10CB
340
250
340
24F
340
248
340
252
340
24D
340
24B
340
24A
340
24C
340
253
340
10CC
340
256
340
257
340
255
340
234
340
237
340
241
340
23D
340
239
340
23F
340
238
340
23E
340
240
340
23B
340
23A
340
23C
340
242
340
235
340
236
340
29E
340
2A0
340
10DF
340
10DE
340
10D8
340
10D9
340
29C
340
10E4
340
10E5
340
10E3
340
10E2
340
201
340
264
340
1FD
340
1F7
340
1F6
340
1FB
340
203
340
10EC
340
1FC
340
10ED
340
263
340
20A
340
208
340
292
340
10D5
340
10EE
340
10F3
340
1FF
340
10D6
340
1FE
340
10D7
340
10F0
340
10F1
340
296
340
298
340
10E9
340
10E8
340
207
340
10EA
340
10EB
340
10F2
340
10F7
340
294
340
10D2
340
10D3
340
10F6
340
10EF
340
27A
340
276
340
28A
340
28F
340
10F8
340
28E
340
291
340
10F9
340
290
340
278
340
28C
340
28B
340
279
340
28D
340
277
340
266
340
286
340
289
340
27E
340
27D
340
27F
340
285
340
282
340
27B
340
281
340
283
340
27C
340
280
340
284
340
287
340
17E5
340
269
340
26B
340
26D
340
26E
340
270
340
272
340
274
340
26A
340
26C
340
26F
340
271
340
273
340
275
340
268
340
267
340
265
  0
GROUP
  5
182B
102
{ACAD_REACTORS
330
1A
102
}
330
1A
100
AcDbGroup
300

 70
     1
 71
     1
340
181A
340
1819
340
181E
340
181F
340
1820
340
181D
340
182A
340
1811
340
1827
  0
GROUP
  5
18B4
102
{ACAD_REACTORS
330
1A
102
}
330
1A
100
AcDbGroup
300

 70
     1
 71
     1
  0
GROUP
  5
18B5
102
{ACAD_REACTORS
330
1A
102
}
330
1A
100
AcDbGroup
300

 70
     1
 71
     1
340
1875
340
1833
340
182D
340
183C
340
1876
340
182E
340
1844
340
1851
340
1862
340
1859
340
1879
340
187F
  0
GROUP
  5
18B7
102
{ACAD_REACTORS
330
1A
102
}
330
1A
100
AcDbGroup
300

 70
     1
 71
     1
340
1883
340
1888
340
188F
340
1887
340
1890
340
1891
340
1884
340
188B
340
1895
340
1896
340
1897
  0
GROUP
  5
1926
102
{ACAD_REACTORS
330
1A
102
}
330
1A
100
AcDbGroup
300

 70
     1
 71
     1
340
1920
340
18D4
340
18F8
340
18FB
340
18FC
340
18FA
340
18DA
340
18D8
340
190B
340
1919
340
1910
340
190E
340
190D
340
1903
340
18E0
340
18EB
340
18E8
340
18E7
340
18EC
340
18E6
340
18EE
340
18E5
340
18E4
340
18EF
340
18ED
340
18EA
340
18E9
340
1905
340
190A
340
18FD
340
191A
340
190F
340
1909
340
1908
340
190C
340
1907
340
1906
340
1923
340
1922
340
18D6
340
1924
340
1925
  0
GROUP
  5
199B
102
{ACAD_REACTORS
330
1A
102
}
330
1A
100
AcDbGroup
300

 70
     1
 71
     1
340
1949
340
1948
340
194B
340
194A
340
1966
340
1978
340
1967
340
195C
340
1950
340
1973
340
194F
340
1972
340
1971
340
1962
340
1964
340
1963
340
194E
340
1970
340
198D
340
195D
340
1952
340
1975
340
1951
340
1974
340
1985
340
1983
340
197B
340
1982
340
197A
340
1984
340
1999
340
196A
340
196F
340
198F
340
1980
340
197E
340
197F
340
197D
340
1981
340
197C
340
1998
340
1997
  0
GROUP
  5
1AB1
102
{ACAD_REACTORS
330
1A
102
}
330
1A
100
AcDbGroup
300

 70
     1
 71
     1
340
19F6
340
19F5
340
1A31
340
1A1D
340
1A08
340
1A07
340
19F8
340
1A29
340
1A15
340
1A03
340
1A02
340
1A01
340
1A0C
340
1A0B
340
1A0A
340
1A09
340
19FD
340
19FC
340
19FB
340
1A10
340
1A11
340
1A14
340
1A13
340
1A12
340
1A18
340
1A0F
340
1A0E
340
1A17
340
1A16
340
1A28
340
1A25
340
1A26
340
1A24
340
1A27
340
1A2B
340
1A2A
340
1A06
340
1A05
340
1A04
340
1A00
340
19FF
340
19FE
340
1A1C
340
1A1A
340
1A19
340
1A20
340
1A1B
340
1A0D
340
1A1F
340
1A1E
340
1A30
340
1A2C
340
1A2E
340
1A2D
340
1A23
340
1A2F
340
1A33
340
1A32
340
19FA
340
19F9
340
19F7
340
1A22
340
1A21
340
1A37
340
1A34
340
1A36
340
1A35
340
1A38
340
1A47
340
1A40
340
1A3F
340
1A3A
340
1A42
340
1A46
340
1A39
340
1A41
340
1A4B
340
1A49
340
1A4E
340
1A52
  0
LAYOUT
  5
21
102
{ACAD_REACTORS
330
1E
102
}
330
1E
100
AcDbPlotSettings
  1

  2

  4

  6

 40
0.0
 41
0.0
 42
0.0
 43
0.0
 44
0.0
 45
0.0
 46
0.0
 47
0.0
 48
0.0
 49
0.0
140
0.0
141
0.0
142
1.0
143
1.0
 70
     0
 72
     0
 73
     0
 74
     0
  7

 75
     0
147
1.0
148
0.0
149
0.0
100
AcDbLayout
  1
Layout1
 70
     0
 71
     1
 10
0.0
 20
0.0
 11
12.0
 21
9.0
 12
0.0
 22
0.0
 32
0.0
 14
1.000000000000000E+20
 24
1.000000000000000E+20
 34
1.000000000000000E+20
 15
-1.000000000000000E+20
 25
-1.000000000000000E+20
 35
-1.000000000000000E+20
146
0.0
 13
0.0
 23
0.0
 33
0.0
 16
1.0
 26
0.0
 36
0.0
 17
0.0
 27
1.0
 37
0.0
 76
     0
330
B
  0
LAYOUT
  5
20
102
{ACAD_REACTORS
330
1E
102
}
330
1E
100
AcDbPlotSettings
  1

  2

  4

  6

 40
0.0
 41
0.0
 42
0.0
 43
0.0
 44
0.0
 45
0.0
 46
0.0
 47
0.0
 48
0.0
 49
0.0
140
0.0
141
0.0
142
1.0
143
1.0
 70
  1024
 72
     0
 73
     0
 74
     0
  7

 75
     0
147
1.0
148
0.0
149
0.0
100
AcDbLayout
  1
Model
 70
     0
 71
     0
 10
0.0
 20
0.0
 11
0.0
 21
0.0
 12
0.0
 22
0.0
 32
0.0
 14
0.0
 24
0.0
 34
0.0
 15
0.0
 25
0.0
 35
0.0
146
0.0
 13
0.0
 23
0.0
 33
0.0
 16
0.0
 26
0.0
 36
0.0
 17
0.0
 27
0.0
 37
0.0
 76
     0
330
A
  0
MLINESTYLE
  5
1C
102
{ACAD_REACTORS
330
1B
102
}
330
1B
100
AcDbMlineStyle
  2
STANDARD
 70
     0
  3

 62
     0
 51
90.0
 52
90.0
 71
     2
 49
0.5
 62
   256
  6
BYLAYER
 49
-0.5
 62
   256
  6
BYLAYER
  0
ACDBPLACEHOLDER
  5
1D
102
{ACAD_REACTORS
330
1F
102
}
330
1F
  0
XRECORD
  5
1173
102
{ACAD_REACTORS
330
1172
102
}
330
1172
100
AcDbXrecord
280
     1
  1
-100
  1
*-100
  1
*
  1
*
 70
     0
  1
*
  1
*
  0
XRECORD
  5
1174
102
{ACAD_REACTORS
330
1172
102
}
330
1172
100
AcDbXrecord
280
     1
  1
-50
  1
*-50
  1
*
  1
*
 70
     0
  1
*
  1
*
  0
XRECORD
  5
1175
102
{ACAD_REACTORS
330
1172
102
}
330
1172
100
AcDbXrecord
280
     1
  1
-ben
  1
ben*
  1
*
  1
*
 70
     0
  1
*
  1
*
  0
XRECORD
  5
1176
102
{ACAD_REACTORS
330
1172
102
}
330
1172
100
AcDbXrecord
280
     1
  1
-H
  1
00*,01*,02*,05*,1*,2*,3*,4*,5*,6*,8*
  1
*
  1
*
 70
     0
  1
*
  1
*
  0
XRECORD
  5
1177
102
{ACAD_REACTORS
330
1172
102
}
330
1172
100
AcDbXrecord
280
     1
  1
-T
  1
00*,01*,03*,05*,1*,20*,21*,22*,23*,24*,25*,26*,27*,29*,2a*,3*,4*,7*,9*
  1
*
  1
*
 70
     0
  1
*
  1
*
  0
XRECORD
  5
1178
102
{ACAD_REACTORS
330
1172
102
}
330
1172
100
AcDbXrecord
280
     1
  1
$
  1
*$0$*
  1
*
  1
*
 70
     0
  1
*
  1
*
  0
XRECORD
  5
1179
102
{ACAD_REACTORS
330
1172
102
}
330
1172
100
AcDbXrecord
280
     1
  1
$0$
  1
$0$*
  1
*
  1
*
 70
     0
  1
*
  1
*
  0
XRECORD
  5
117A
102
{ACAD_REACTORS
330
1172
102
}
330
1172
100
AcDbXrecord
280
     1
  1
0
  1
0*
  1
*
  1
*
 70
     0
  1
*
  1
*
  0
XRECORD
  5
117B
102
{ACAD_REACTORS
330
1172
102
}
330
1172
100
AcDbXrecord
280
     1
  1
0-
  1
0-*
  1
*
  1
*
 70
     0
  1
*
  1
*
  0
XRECORD
  5
117C
102
{ACAD_REACTORS
330
1172
102
}
330
1172
100
AcDbXrecord
280
     1
  1
00
  1
*-100
  1
*
  1
*
 70
     0
  1
*
  1
*
  0
XRECORD
  5
117D
102
{ACAD_REACTORS
330
1172
102
}
330
1172
100
AcDbXrecord
280
     1
  1
01
  1
0*a*
  1
*
  1
*
 70
     0
  1
*
  1
*
  0
XRECORD
  5
117E
102
{ACAD_REACTORS
330
1172
102
}
330
1172
100
AcDbXrecord
280
     1
  1
01KUTAI
  1
01KUTAI
  1
*
  1
*
 70
     0
  1
*
  1
*
  0
XRECORD
  5
117F
102
{ACAD_REACTORS
330
1172
102
}
330
1172
100
AcDbXrecord
280
     1
  1
01全体計画平面図
  1
00*,02*,0A*
  1
*
  1
*
 70
     0
  1
*
  1
*
  0
XRECORD
  5
1180
102
{ACAD_REACTORS
330
1172
102
}
330
1172
100
AcDbXrecord
280
     1
  1
02現況平面図
  1
00*,01*,0B*
  1
*
  1
*
 70
     0
  1
*
  1
*
  0
XRECORD
  5
1181
102
{ACAD_REACTORS
330
1172
102
}
330
1172
100
AcDbXrecord
280
     1
  1
03撤去平面図
  1
00*,01*,0C*
  1
*
  1
*
 70
     0
  1
*
  1
*
  0
XRECORD
  5
1182
102
{ACAD_REACTORS
330
1172
102
}
330
1172
100
AcDbXrecord
280
     1
  1
04造成平面図
  1
00*,02計*,0D*,03*,01*
  1
*
  1
*
 70
     0
  1
*
  1
*
  0
XRECORD
  5
1183
102
{ACAD_REACTORS
330
1172
102
}
330
1172
100
AcDbXrecord
280
     1
  1
05
  1
*05*
  1
*
  1
*
 70
     0
  1
*
  1
*
  0
XRECORD
  5
1184
102
{ACAD_REACTORS
330
1172
102
}
330
1172
100
AcDbXrecord
280
     1
  1
05施設平面図
  1
00*,02*,0E*,05*
  1
*
  1
*
 70
     0
  1
*
  1
*
  0
XRECORD
  5
1185
102
{ACAD_REACTORS
330
1172
102
}
330
1172
100
AcDbXrecord
280
     1
  1
06
  1
06*
  1
*
  1
*
 70
     0
  1
*
  1
*
  0
XRECORD
  5
1186
102
{ACAD_REACTORS
330
1172
102
}
330
1172
100
AcDbXrecord
280
     1
  1
06siki
  1
06*siki*,sikiti,00waku,*|*
  1
*
  1
*
 70
     0
  1
*
  1
*
  0
XRECORD
  5
1187
102
{ACAD_REACTORS
330
1172
102
}
330
1172
100
AcDbXrecord
280
     1
  1
06siki2
  1
06*siki*,sikiti,00waku,*|*
  1
*
  1
*
 70
     0
  1
*
  1
*
  0
XRECORD
  5
1188
102
{ACAD_REACTORS
330
1172
102
}
330
1172
100
AcDbXrecord
280
     1
  1
06排水平面図
  1
00*,02*,0F*
  1
*
  1
*
 70
     0
  1
*
  1
*
  0
XRECORD
  5
1189
102
{ACAD_REACTORS
330
1172
102
}
330
1172
100
AcDbXrecord
280
     1
  1
07
  1
07*
  1
*
  1
*
 70
     0
  1
*
  1
*
  0
XRECORD
  5
118A
102
{ACAD_REACTORS
330
1172
102
}
330
1172
100
AcDbXrecord
280
     1
  1
07給水平面図
  1
00*,02*,0G*
  1
*
  1
*
 70
     0
  1
*
  1
*
  0
XRECORD
  5
118B
102
{ACAD_REACTORS
330
1172
102
}
330
1172
100
AcDbXrecord
280
     1
  1
0割付平面図
  1
*わ*
  1
*
  1
*
 70
     0
  1
*
  1
*
  0
XRECORD
  5
118C
102
{ACAD_REACTORS
330
1172
102
}
330
1172
100
AcDbXrecord
280
     1
  1
0潅水平面
  1
*三*
  1
*
  1
*
 70
     0
  1
*
  1
*
  0
XRECORD
  5
118D
102
{ACAD_REACTORS
330
1172
102
}
330
1172
100
AcDbXrecord
280
     1
  1
0計画平面
  1
*け*
  1
*
  1
*
 70
     0
  1
*
  1
*
  0
XRECORD
  5
118E
102
{ACAD_REACTORS
330
1172
102
}
330
1172
100
AcDbXrecord
280
     1
  1
0高木植栽
  1
*こ*
  1
*
  1
*
 70
     0
  1
*
  1
*
  0
XRECORD
  5
118F
102
{ACAD_REACTORS
330
1172
102
}
330
1172
100
AcDbXrecord
280
     1
  1
0施設平面
  1
*し*
  1
*
  1
*
 70
     0
  1
*
  1
*
  0
XRECORD
  5
1190
102
{ACAD_REACTORS
330
1172
102
}
330
1172
100
AcDbXrecord
280
     1
  1
0床内
  1
FI-*
  1
*
  1
*
 70
     0
  1
*
  1
*
  0
XRECORD
  5
1191
102
{ACAD_REACTORS
330
1172
102
}
330
1172
100
AcDbXrecord
280
     1
  1
0床壁
  1
FW*
  1
*
  1
*
 70
     0
  1
*
  1
*
  0
XRECORD
  5
1192
102
{ACAD_REACTORS
330
1172
102
}
330
1172
100
AcDbXrecord
280
     1
  1
0照明配置図
  1
*め*
  1
*
  1
*
 70
     0
  1
*
  1
*
  0
XRECORD
  5
1193
102
{ACAD_REACTORS
330
1172
102
}
330
1172
100
AcDbXrecord
280
     1
  1
0詳細図
  1
*-d
  1
*
  1
*
 70
     0
  1
*
  1
*
  0
XRECORD
  5
1194
102
{ACAD_REACTORS
330
1172
102
}
330
1172
100
AcDbXrecord
280
     1
  1
0植栽基盤
  1
*ど*
  1
*
  1
*
 70
     0
  1
*
  1
*
  0
XRECORD
  5
1195
102
{ACAD_REACTORS
330
1172
102
}
330
1172
100
AcDbXrecord
280
     1
  1
0全体工区区分図
  1
*ぜ*
  1
*
  1
*
 70
     0
  1
*
  1
*
  0
XRECORD
  5
1196
102
{ACAD_REACTORS
330
1172
102
}
330
1172
100
AcDbXrecord
280
     1
  1
0総合図off
  1
*-s
  1
*
  1
*
 70
     0
  1
*
  1
*
  0
XRECORD
  5
1197
102
{ACAD_REACTORS
330
1172
102
}
330
1172
100
AcDbXrecord
280
     1
  1
0総合図枠
  1
*-2
  1
*
  1
*
 70
     0
  1
*
  1
*
  0
XRECORD
  5
1198
102
{ACAD_REACTORS
330
1172
102
}
330
1172
100
AcDbXrecord
280
     1
  1
0低木
  1
*て*
  1
*
  1
*
 70
     0
  1
*
  1
*
  0
XRECORD
  5
1199
102
{ACAD_REACTORS
330
1172
102
}
330
1172
100
AcDbXrecord
280
     1
  1
0排水平面
  1
*は*
  1
*
  1
*
 70
     0
  1
*
  1
*
  0
XRECORD
  5
119A
102
{ACAD_REACTORS
330
1172
102
}
330
1172
100
AcDbXrecord
280
     1
  1
0平詳枠
  1
*-1
  1
*
  1
*
 70
     0
  1
*
  1
*
  0
XRECORD
  5
119B
102
{ACAD_REACTORS
330
1172
102
}
330
1172
100
AcDbXrecord
280
     1
  1
0擁壁平面図
  1
*よ*
  1
*
  1
*
 70
     0
  1
*
  1
*
  0
XRECORD
  5
119C
102
{ACAD_REACTORS
330
1172
102
}
330
1172
100
AcDbXrecord
280
     1
  1
1
  1
*
  1
*
  1
*
 70
     0
  1
*
  1
*
  0
XRECORD
  5
119D
102
{ACAD_REACTORS
330
1172
102
}
330
1172
100
AcDbXrecord
280
     1
  1
10
  1
*
  1
10
  1
*
 70
     0
  1
*
  1
*
  0
XRECORD
  5
119E
102
{ACAD_REACTORS
330
1172
102
}
330
1172
100
AcDbXrecord
280
     1
  1
100
  1
50*
  1
*
  1
*
 70
     0
  1
*
  1
*
  0
XRECORD
  5
119F
102
{ACAD_REACTORS
330
1172
102
}
330
1172
100
AcDbXrecord
280
     1
  1
10植栽平面図
  1
00*,02*,0I*
  1
*
  1
*
 70
     0
  1
*
  1
*
  0
XRECORD
  5
11A0
102
{ACAD_REACTORS
330
1172
102
}
330
1172
100
AcDbXrecord
280
     1
  1
11
  1
11*
  1
*
  1
*
 70
     0
  1
*
  1
*
  0
XRECORD
  5
11A1
102
{ACAD_REACTORS
330
1172
102
}
330
1172
100
AcDbXrecord
280
     1
  1
1111
  1
*-50
  1
*
  1
*
 70
     0
  1
*
  1
*
  0
XRECORD
  5
11A2
102
{ACAD_REACTORS
330
1172
102
}
330
1172
100
AcDbXrecord
280
     1
  1
11寸法図
  1
00*,02*,0K*,03*
  1
*
  1
*
 70
     0
  1
*
  1
*
  0
XRECORD
  5
11A3
102
{ACAD_REACTORS
330
1172
102
}
330
1172
100
AcDbXrecord
280
     1
  1
12
  1
*
  1
*12
  1
*
 70
     0
  1
*
  1
*
  0
XRECORD
  5
11A4
102
{ACAD_REACTORS
330
1172
102
}
330
1172
100
AcDbXrecord
280
     1
  1
19
  1
*19*
  1
*
  1
*
 70
     0
  1
*
  1
*
  0
XRECORD
  5
11A5
102
{ACAD_REACTORS
330
1172
102
}
330
1172
100
AcDbXrecord
280
     1
  1
１Ｆ床伏OFF
  1
-*
  1
*
  1
*
 70
     0
  1
*
  1
*
  0
XRECORD
  5
11A6
102
{ACAD_REACTORS
330
1172
102
}
330
1172
100
AcDbXrecord
280
     1
  1
1階
  1
*1階*
  1
*
  1
*
 70
     0
  1
*
  1
*
  0
XRECORD
  5
11A7
102
{ACAD_REACTORS
330
1172
102
}
330
1172
100
AcDbXrecord
280
     1
  1
1床
  1
F-*
  1
*
  1
*
 70
     0
  1
*
  1
*
  0
XRECORD
  5
11A8
102
{ACAD_REACTORS
330
1172
102
}
330
1172
100
AcDbXrecord
280
     1
  1
1芯
  1
1*
  1
*
  1
*
 70
     0
  1
*
  1
*
  0
XRECORD
  5
11A9
102
{ACAD_REACTORS
330
1172
102
}
330
1172
100
AcDbXrecord
280
     1
  1
1芯線
  1
1*
  1
*
  1
*
 70
     0
  1
*
  1
*
  0
XRECORD
  5
11AA
102
{ACAD_REACTORS
330
1172
102
}
330
1172
100
AcDbXrecord
280
     1
  1
20
  1
*20
  1
*
  1
*
 70
     0
  1
*
  1
*
  0
XRECORD
  5
11AB
102
{ACAD_REACTORS
330
1172
102
}
330
1172
100
AcDbXrecord
280
     1
  1
21
  1
*
  1
21
  1
*
 70
     0
  1
*
  1
*
  0
XRECORD
  5
11AC
102
{ACAD_REACTORS
330
1172
102
}
330
1172
100
AcDbXrecord
280
     1
  1
250
  1
*250*
  1
*
  1
*
 70
     0
  1
*
  1
*
  0
XRECORD
  5
11AD
102
{ACAD_REACTORS
330
1172
102
}
330
1172
100
AcDbXrecord
280
     1
  1
2fmiage
  1
*
  1
*
  1
*
 70
     1
  1
*
  1
*
  0
XRECORD
  5
11AE
102
{ACAD_REACTORS
330
1172
102
}
330
1172
100
AcDbXrecord
280
     1
  1
2躯体
  1
2*
  1
*
  1
*
 70
     0
  1
*
  1
*
  0
XRECORD
  5
11AF
102
{ACAD_REACTORS
330
1172
102
}
330
1172
100
AcDbXrecord
280
     1
  1
2断面
  1
2*
  1
*
  1
*
 70
     0
  1
*
  1
*
  0
XRECORD
  5
11B0
102
{ACAD_REACTORS
330
1172
102
}
330
1172
100
AcDbXrecord
280
     1
  1
2壁
  1
W-*
  1
*
  1
*
 70
     0
  1
*
  1
*
  0
XRECORD
  5
11B1
102
{ACAD_REACTORS
330
1172
102
}
330
1172
100
AcDbXrecord
280
     1
  1
300
  1
*300*
  1
*
  1
*
 70
     0
  1
*
  1
*
  0
XRECORD
  5
11B2
102
{ACAD_REACTORS
330
1172
102
}
330
1172
100
AcDbXrecord
280
     1
  1
32
  1
*
  1
32
  1
*
 70
     0
  1
*
  1
*
  0
XRECORD
  5
11B3
102
{ACAD_REACTORS
330
1172
102
}
330
1172
100
AcDbXrecord
280
     1
  1
333
  1
*
  1
*
  1
*
 70
    12
  1
*
  1
*
  0
XRECORD
  5
11B4
102
{ACAD_REACTORS
330
1172
102
}
330
1172
100
AcDbXrecord
280
     1
  1
37
  1
*37
  1
*
  1
*
 70
     0
  1
*
  1
*
  0
XRECORD
  5
11B5
102
{ACAD_REACTORS
330
1172
102
}
330
1172
100
AcDbXrecord
280
     1
  1
3D
  1
3D*
  1
*
  1
*
 70
     0
  1
*
  1
*
  0
XRECORD
  5
11B6
102
{ACAD_REACTORS
330
1172
102
}
330
1172
100
AcDbXrecord
280
     1
  1
3開口
  1
3*
  1
*
  1
*
 70
     0
  1
*
  1
*
  0
XRECORD
  5
11B7
102
{ACAD_REACTORS
330
1172
102
}
330
1172
100
AcDbXrecord
280
     1
  1
3見掛り
  1
3*
  1
*
  1
*
 70
     0
  1
*
  1
*
  0
XRECORD
  5
11B8
102
{ACAD_REACTORS
330
1172
102
}
330
1172
100
AcDbXrecord
280
     1
  1
3天井内
  1
CI-*
  1
*
  1
*
 70
     0
  1
*
  1
*
  0
XRECORD
  5
11B9
102
{ACAD_REACTORS
330
1172
102
}
330
1172
100
AcDbXrecord
280
     1
  1
41
  1
41
  1
*
  1
*
 70
     1
  1
*
  1
*
  0
XRECORD
  5
11BA
102
{ACAD_REACTORS
330
1172
102
}
330
1172
100
AcDbXrecord
280
     1
  1
4仕上げ
  1
4*
  1
*
  1
*
 70
     0
  1
*
  1
*
  0
XRECORD
  5
11BB
102
{ACAD_REACTORS
330
1172
102
}
330
1172
100
AcDbXrecord
280
     1
  1
4天井
  1
C-*
  1
*
  1
*
 70
     0
  1
*
  1
*
  0
XRECORD
  5
11BC
102
{ACAD_REACTORS
330
1172
102
}
330
1172
100
AcDbXrecord
280
     1
  1
5
  1
*5
  1
*
  1
*
 70
     1
  1
*
  1
*
  0
XRECORD
  5
11BD
102
{ACAD_REACTORS
330
1172
102
}
330
1172
100
AcDbXrecord
280
     1
  1
50
  1
*-50
  1
*
  1
*
 70
     0
  1
*
  1
*
  0
XRECORD
  5
11BE
102
{ACAD_REACTORS
330
1172
102
}
330
1172
100
AcDbXrecord
280
     1
  1
50off
  1
50*
  1
*
  1
*
 70
     0
  1
*
  1
*
  0
XRECORD
  5
11BF
102
{ACAD_REACTORS
330
1172
102
}
330
1172
100
AcDbXrecord
280
     1
  1
51-52
  1
5*
  1
*
  1
*
 70
     0
  1
*
  1
*
  0
XRECORD
  5
11C0
102
{ACAD_REACTORS
330
1172
102
}
330
1172
100
AcDbXrecord
280
     1
  1
555
  1
*
  1
*
  1
*
 70
     1
  1
*
  1
*
  0
XRECORD
  5
11C1
102
{ACAD_REACTORS
330
1172
102
}
330
1172
100
AcDbXrecord
280
     1
  1
5寸法
  1
5*
  1
*
  1
*
 70
     0
  1
*
  1
*
  0
XRECORD
  5
11C2
102
{ACAD_REACTORS
330
1172
102
}
330
1172
100
AcDbXrecord
280
     1
  1
5文字
  1
*TXT*
  1
*
  1
*
 70
     0
  1
*
  1
*
  0
XRECORD
  5
11C3
102
{ACAD_REACTORS
330
1172
102
}
330
1172
100
AcDbXrecord
280
     1
  1
6
  1
*
  1
6
  1
*
 70
     0
  1
*
  1
*
  0
XRECORD
  5
11C4
102
{ACAD_REACTORS
330
1172
102
}
330
1172
100
AcDbXrecord
280
     1
  1
66-躯体図
  1
0,Defpoints,HOJO,雲マーク,000*,010*,020*,1*,400*,470*,520*,570*,08*
  1
*
  1
*
 70
     0
  1
*
  1
*
  0
XRECORD
  5
11C5
102
{ACAD_REACTORS
330
1172
102
}
330
1172
100
AcDbXrecord
280
     1
  1
66躯体図
  1
0,Defpoints,HOJO,雲マーク,000*,010*,020*,1*,400*,470*,520*,570*,08*,6*
  1
*
  1
*
 70
     0
  1
*
  1
*
  0
XRECORD
  5
11C6
102
{ACAD_REACTORS
330
1172
102
}
330
1172
100
AcDbXrecord
280
     1
  1
6記号
  1
6*
  1
*
  1
*
 70
     0
  1
*
  1
*
  0
XRECORD
  5
11C7
102
{ACAD_REACTORS
330
1172
102
}
330
1172
100
AcDbXrecord
280
     1
  1
6文字
  1
6*
  1
*
  1
*
 70
     0
  1
*
  1
*
  0
XRECORD
  5
11C8
102
{ACAD_REACTORS
330
1172
102
}
330
1172
100
AcDbXrecord
280
     1
  1
6保留
  1
*_a
  1
*
  1
*
 70
     0
  1
*
  1
*
  0
XRECORD
  5
11C9
102
{ACAD_REACTORS
330
1172
102
}
330
1172
100
AcDbXrecord
280
     1
  1
767
  1
*
  1
*
  1
*
 70
     0
  1
*
  1
*
  0
XRECORD
  5
11CA
102
{ACAD_REACTORS
330
1172
102
}
330
1172
100
AcDbXrecord
280
     1
  1
767SE13-0...$
  1
*
  1
*
  1
*
 70
     0
  1
*
  1
*
  0
XRECORD
  5
11CB
102
{ACAD_REACTORS
330
1172
102
}
330
1172
100
AcDbXrecord
280
     1
  1
767SE13-07-99$0$
  1
*
  1
*
  1
*
 70
     0
  1
*
  1
*
  0
XRECORD
  5
11CC
102
{ACAD_REACTORS
330
1172
102
}
330
1172
100
AcDbXrecord
280
     1
  1
7記号
  1
7*
  1
*
  1
*
 70
     0
  1
*
  1
*
  0
XRECORD
  5
11CD
102
{ACAD_REACTORS
330
1172
102
}
330
1172
100
AcDbXrecord
280
     1
  1
8
  1
*
  1
8
  1
*
 70
    12
  1
*
  1
*
  0
XRECORD
  5
11CE
102
{ACAD_REACTORS
330
1172
102
}
330
1172
100
AcDbXrecord
280
     1
  1
8寸法
  1
8*
  1
*
  1
*
 70
     0
  1
*
  1
*
  0
XRECORD
  5
11CF
102
{ACAD_REACTORS
330
1172
102
}
330
1172
100
AcDbXrecord
280
     1
  1
8設備
  1
8*
  1
*
  1
*
 70
     0
  1
*
  1
*
  0
XRECORD
  5
11D0
102
{ACAD_REACTORS
330
1172
102
}
330
1172
100
AcDbXrecord
280
     1
  1
9文字
  1
9*
  1
*
  1
*
 70
     0
  1
*
  1
*
  0
XRECORD
  5
11D1
102
{ACAD_REACTORS
330
1172
102
}
330
1172
100
AcDbXrecord
280
     1
  1
9目地
  1
9*
  1
*
  1
*
 70
     0
  1
*
  1
*
  0
XRECORD
  5
11D2
102
{ACAD_REACTORS
330
1172
102
}
330
1172
100
AcDbXrecord
280
     1
  1
A
  1
A*
  1
*
  1
*
 70
     0
  1
*
  1
*
  0
XRECORD
  5
11D3
102
{ACAD_REACTORS
330
1172
102
}
330
1172
100
AcDbXrecord
280
     1
  1
A-
  1
A-*
  1
*
  1
*
 70
     0
  1
*
  1
*
  0
XRECORD
  5
11D4
102
{ACAD_REACTORS
330
1172
102
}
330
1172
100
AcDbXrecord
280
     1
  1
A(枠･表)を表示
  1
A*
  1
*
  1
*
 70
     0
  1
*
  1
*
  0
XRECORD
  5
11D5
102
{ACAD_REACTORS
330
1172
102
}
330
1172
100
AcDbXrecord
280
     1
  1
A01
  1
*A01*
  1
*
  1
*
 70
     0
  1
*
  1
*
  0
XRECORD
  5
11D6
102
{ACAD_REACTORS
330
1172
102
}
330
1172
100
AcDbXrecord
280
     1
  1
A1.DEMO-KEY NOTE
  1
*-D-*
  1
*
  1
*
 70
     0
  1
*
  1
*
  0
XRECORD
  5
11D7
102
{ACAD_REACTORS
330
1172
102
}
330
1172
100
AcDbXrecord
280
     1
  1
A2. CONS-KEY NOTE
  1
*-C-*
  1
*
  1
*
 70
     0
  1
*
  1
*
  0
XRECORD
  5
11D8
102
{ACAD_REACTORS
330
1172
102
}
330
1172
100
AcDbXrecord
280
     1
  1
A21
  1
*A21*
  1
*
  1
*
 70
     0
  1
*
  1
*
  0
XRECORD
  5
11D9
102
{ACAD_REACTORS
330
1172
102
}
330
1172
100
AcDbXrecord
280
     1
  1
A3
  1
*A3
  1
*
  1
*
 70
     0
  1
*
  1
*
  0
XRECORD
  5
11DA
102
{ACAD_REACTORS
330
1172
102
}
330
1172
100
AcDbXrecord
280
     1
  1
A3. RCP-LAYER
  1
*R-SCH*
  1
*
  1
*
 70
     0
  1
*
  1
*
  0
XRECORD
  5
11DB
102
{ACAD_REACTORS
330
1172
102
}
330
1172
100
AcDbXrecord
280
     1
  1
A3D. RCP_DEMO-KEY NOTE
  1
*-RD-*
  1
*
  1
*
 70
     0
  1
*
  1
*
  0
XRECORD
  5
11DC
102
{ACAD_REACTORS
330
1172
102
}
330
1172
100
AcDbXrecord
280
     1
  1
A4. P&T- KEY NOTE
  1
*T-SCH*
  1
*
  1
*
 70
     0
  1
*
  1
*
  0
XRECORD
  5
11DD
102
{ACAD_REACTORS
330
1172
102
}
330
1172
100
AcDbXrecord
280
     1
  1
A4D. EL_DEMO-KEY NOTE
  1
*-ED-*
  1
*
  1
*
 70
     0
  1
*
  1
*
  0
XRECORD
  5
11DE
102
{ACAD_REACTORS
330
1172
102
}
330
1172
100
AcDbXrecord
280
     1
  1
A5. FINISH-KEY NOTE
  1
*-N-*
  1
*
  1
*
 70
     0
  1
*
  1
*
  0
XRECORD
  5
11DF
102
{ACAD_REACTORS
330
1172
102
}
330
1172
100
AcDbXrecord
280
     1
  1
A6. FURN-KEY NOTE
  1
*-F-*
  1
*
  1
*
 70
     0
  1
*
  1
*
  0
XRECORD
  5
11E0
102
{ACAD_REACTORS
330
1172
102
}
330
1172
100
AcDbXrecord
280
     1
  1
aa
  1
*aa*
  1
*
  1
*
 70
     0
  1
*
  1
*
  0
XRECORD
  5
11E1
102
{ACAD_REACTORS
330
1172
102
}
330
1172
100
AcDbXrecord
280
     1
  1
aaa
  1
*
  1
*
  1
*
 70
     0
  1
*
  1
*
  0
XRECORD
  5
11E2
102
{ACAD_REACTORS
330
1172
102
}
330
1172
100
AcDbXrecord
280
     1
  1
AB棟
  1
ＡＢ棟*
  1
*
  1
*
 70
     0
  1
*
  1
*
  0
XRECORD
  5
11E3
102
{ACAD_REACTORS
330
1172
102
}
330
1172
100
AcDbXrecord
280
     1
  1
ＡＢ棟
  1
ＡＢ棟*
  1
*
  1
*
 70
     0
  1
*
  1
*
  0
XRECORD
  5
11E4
102
{ACAD_REACTORS
330
1172
102
}
330
1172
100
AcDbXrecord
280
     1
  1
ACTIVE
  1
C.*
  1
*
  1
*
 70
     0
  1
*
  1
*
  0
XRECORD
  5
11E5
102
{ACAD_REACTORS
330
1172
102
}
330
1172
100
AcDbXrecord
280
     1
  1
ACTIVE2
  1
B-*
  1
*
  1
*
 70
     0
  1
*
  1
*
  0
XRECORD
  5
11E6
102
{ACAD_REACTORS
330
1172
102
}
330
1172
100
AcDbXrecord
280
     1
  1
ALC
  1
*ALC
  1
*
  1
*
 70
     0
  1
*
  1
*
  0
XRECORD
  5
11E7
102
{ACAD_REACTORS
330
1172
102
}
330
1172
100
AcDbXrecord
280
     1
  1
ALL
  1
*
  1
*
  1
*
 70
     3
  1
*
  1
*
  0
XRECORD
  5
11E8
102
{ACAD_REACTORS
330
1172
102
}
330
1172
100
AcDbXrecord
280
     1
  1
all選択
  1
*
  1
*
  1
*
 70
     0
  1
*
  1
*
  0
XRECORD
  5
11E9
102
{ACAD_REACTORS
330
1172
102
}
330
1172
100
AcDbXrecord
280
     1
  1
AMENAGEMENT
  1
*
  1
*
  1
*
 70
    13
  1
*
  1
*
  0
XRECORD
  5
11EA
102
{ACAD_REACTORS
330
1172
102
}
330
1172
100
AcDbXrecord
280
     1
  1
AQ
  1
AQ*
  1
*
  1
*
 70
     0
  1
*
  1
*
  0
XRECORD
  5
11EB
102
{ACAD_REACTORS
330
1172
102
}
330
1172
100
AcDbXrecord
280
     1
  1
ARBOL
  1
*ARBOL*
  1
*
  1
*
 70
     0
  1
*
  1
*
  0
XRECORD
  5
11EC
102
{ACAD_REACTORS
330
1172
102
}
330
1172
100
AcDbXrecord
280
     1
  1
AREA
  1
*AREA*
  1
*
  1
*
 70
     0
  1
*
  1
*
  0
XRECORD
  5
11ED
102
{ACAD_REACTORS
330
1172
102
}
330
1172
100
AcDbXrecord
280
     1
  1
AREA-SG
  1
*6AREA-SG
  1
6
  1
*
 70
     0
  1
*
  1
*
  0
XRECORD
  5
11EE
102
{ACAD_REACTORS
330
1172
102
}
330
1172
100
AcDbXrecord
280
     1
  1
AS1
  1
*AS1
  1
*
  1
*
 70
     0
  1
*
  1
*
  0
XRECORD
  5
11EF
102
{ACAD_REACTORS
330
1172
102
}
330
1172
100
AcDbXrecord
280
     1
  1
aハッチング
  1
a*
  1
*
  1
*
 70
     0
  1
*
  1
*
  0
XRECORD
  5
11F0
102
{ACAD_REACTORS
330
1172
102
}
330
1172
100
AcDbXrecord
280
     1
  1
A空調
  1
*
  1
*
  1
*
 70
     0
  1
*
  1
KUCYOU
  0
XRECORD
  5
11F1
102
{ACAD_REACTORS
330
1172
102
}
330
1172
100
AcDbXrecord
280
     1
  1
B
  1
B*
  1
*
  1
*
 70
     0
  1
*
  1
*
  0
XRECORD
  5
11F2
102
{ACAD_REACTORS
330
1172
102
}
330
1172
100
AcDbXrecord
280
     1
  1
B(基準)を表示
  1
B*
  1
*
  1
*
 70
     0
  1
*
  1
*
  0
XRECORD
  5
11F3
102
{ACAD_REACTORS
330
1172
102
}
330
1172
100
AcDbXrecord
280
     1
  1
B2
  1
B2*
  1
*
  1
*
 70
     1
  1
*
  1
*
  0
XRECORD
  5
11F4
102
{ACAD_REACTORS
330
1172
102
}
330
1172
100
AcDbXrecord
280
     1
  1
B3
  1
B3*
  1
*
  1
*
 70
     0
  1
*
  1
*
  0
XRECORD
  5
11F5
102
{ACAD_REACTORS
330
1172
102
}
330
1172
100
AcDbXrecord
280
     1
  1
BAL
  1
*BAL
  1
*
  1
*
 70
     0
  1
*
  1
*
  0
XRECORD
  5
11F6
102
{ACAD_REACTORS
330
1172
102
}
330
1172
100
AcDbXrecord
280
     1
  1
baru
  1
*51A
  1
*
  1
*
 70
     0
  1
*
  1
*
  0
XRECORD
  5
11F7
102
{ACAD_REACTORS
330
1172
102
}
330
1172
100
AcDbXrecord
280
     1
  1
baru2
  1
*AS1A
  1
*
  1
*
 70
     0
  1
*
  1
*
  0
XRECORD
  5
11F8
102
{ACAD_REACTORS
330
1172
102
}
330
1172
100
AcDbXrecord
280
     1
  1
BASE
  1
*I4BASE
  1
*
  1
*
 70
     0
  1
*
  1
*
  0
XRECORD
  5
11F9
102
{ACAD_REACTORS
330
1172
102
}
330
1172
100
AcDbXrecord
280
     1
  1
bb
  1
rogarpissu,block
  1
*
  1
*
 70
     0
  1
*
  1
*
  0
XRECORD
  5
11FA
102
{ACAD_REACTORS
330
1172
102
}
330
1172
100
AcDbXrecord
280
     1
  1
bbbb
  1
prova
  1
*
  1
*
 70
    55
  1
*
  1
*
  0
XRECORD
  5
11FB
102
{ACAD_REACTORS
330
1172
102
}
330
1172
100
AcDbXrecord
280
     1
  1
beam
  1
*beam*
  1
*
  1
*
 70
     0
  1
*
  1
*
  0
XRECORD
  5
11FC
102
{ACAD_REACTORS
330
1172
102
}
330
1172
100
AcDbXrecord
280
     1
  1
blocchi
  1
mqa*
  1
*
  1
*
 70
     0
  1
*
  1
*
  0
XRECORD
  5
11FD
102
{ACAD_REACTORS
330
1172
102
}
330
1172
100
AcDbXrecord
280
     1
  1
blue
  1
*
  1
blue
  1
*
 70
     0
  1
*
  1
*
  0
XRECORD
  5
11FE
102
{ACAD_REACTORS
330
1172
102
}
330
1172
100
AcDbXrecord
280
     1
  1
BSM
  1
*BSM*
  1
*
  1
*
 70
     0
  1
*
  1
*
  0
XRECORD
  5
11FF
102
{ACAD_REACTORS
330
1172
102
}
330
1172
100
AcDbXrecord
280
     1
  1
b階段
  1
b*
  1
*
  1
*
 70
     0
  1
*
  1
*
  0
XRECORD
  5
1200
102
{ACAD_REACTORS
330
1172
102
}
330
1172
100
AcDbXrecord
280
     1
  1
B電気
  1
*
  1
*
  1
*
 70
     0
  1
*
  1
DENKI
  0
XRECORD
  5
1201
102
{ACAD_REACTORS
330
1172
102
}
330
1172
100
AcDbXrecord
280
     1
  1
c
  1
c*
  1
*
  1
*
 70
    61
  1
*
  1
*
  0
XRECORD
  5
1202
102
{ACAD_REACTORS
330
1172
102
}
330
1172
100
AcDbXrecord
280
     1
  1
c-block
  1
c-*
  1
*
  1
*
 70
     0
  1
*
  1
*
  0
XRECORD
  5
1203
102
{ACAD_REACTORS
330
1172
102
}
330
1172
100
AcDbXrecord
280
     1
  1
c-block-2
  1
c-*
  1
*
  1
*
 70
  1024
  1
*
  1
*
  0
XRECORD
  5
1204
102
{ACAD_REACTORS
330
1172
102
}
330
1172
100
AcDbXrecord
280
     1
  1
C(寸･文･記)を表示
  1
C*
  1
*
  1
*
 70
     0
  1
*
  1
*
  0
XRECORD
  5
1205
102
{ACAD_REACTORS
330
1172
102
}
330
1172
100
AcDbXrecord
280
     1
  1
cajetin
  1
caj*
  1
*
  1
*
 70
     0
  1
*
  1
*
  0
XRECORD
  5
1206
102
{ACAD_REACTORS
330
1172
102
}
330
1172
100
AcDbXrecord
280
     1
  1
cc
  1
*
  1
*
  1
*
 70
     0
  1
*
  1
*
  0
XRECORD
  5
1207
102
{ACAD_REACTORS
330
1172
102
}
330
1172
100
AcDbXrecord
280
     1
  1
CD06
  1
CD06*
  1
*
  1
*
 70
     0
  1
*
  1
*
  0
XRECORD
  5
1208
102
{ACAD_REACTORS
330
1172
102
}
330
1172
100
AcDbXrecord
280
     1
  1
ＣＤ棟
  1
T15-*
  1
*
  1
*
 70
     0
  1
*
  1
*
  0
XRECORD
  5
1209
102
{ACAD_REACTORS
330
1172
102
}
330
1172
100
AcDbXrecord
280
     1
  1
ceiling
  1
*ceiling*
  1
*
  1
*
 70
     0
  1
*
  1
*
  0
XRECORD
  5
120A
102
{ACAD_REACTORS
330
1172
102
}
330
1172
100
AcDbXrecord
280
     1
  1
CEILINGS XREF
  1
*CE-SUSPENDED-CEILINGS
  1
*
  1
*
 70
     0
  1
*
  1
*
  0
XRECORD
  5
120B
102
{ACAD_REACTORS
330
1172
102
}
330
1172
100
AcDbXrecord
280
     1
  1
CEL
  1
*
  1
*
  1
*
 70
     0
  1
*
  1
*
  0
XRECORD
  5
120C
102
{ACAD_REACTORS
330
1172
102
}
330
1172
100
AcDbXrecord
280
     1
  1
che
  1
che*
  1
*
  1
*
 70
     0
  1
*
  1
*
  0
XRECORD
  5
120D
102
{ACAD_REACTORS
330
1172
102
}
330
1172
100
AcDbXrecord
280
     1
  1
chika
  1
2躯体構造体点線
  1
211
  1
*
 70
     0
  1
*
  1
*
  0
XRECORD
  5
120E
102
{ACAD_REACTORS
330
1172
102
}
330
1172
100
AcDbXrecord
280
     1
  1
CLG
  1
*CLG*
  1
*
  1
*
 70
     0
  1
*
  1
*
  0
XRECORD
  5
120F
102
{ACAD_REACTORS
330
1172
102
}
330
1172
100
AcDbXrecord
280
     1
  1
COL
  1
*COL*
  1
*
  1
*
 70
     0
  1
*
  1
*
  0
XRECORD
  5
1210
102
{ACAD_REACTORS
330
1172
102
}
330
1172
100
AcDbXrecord
280
     1
  1
cold beam
  1
*cold*
  1
*
  1
*
 70
     0
  1
*
  1
*
  0
XRECORD
  5
1211
102
{ACAD_REACTORS
330
1172
102
}
330
1172
100
AcDbXrecord
280
     1
  1
colu
  1
*colu*
  1
*
  1
*
 70
     0
  1
*
  1
*
  0
XRECORD
  5
1212
102
{ACAD_REACTORS
330
1172
102
}
330
1172
100
AcDbXrecord
280
     1
  1
com
  1
com*
  1
*
  1
*
 70
     0
  1
*
  1
*
  0
XRECORD
  5
1213
102
{ACAD_REACTORS
330
1172
102
}
330
1172
100
AcDbXrecord
280
     1
  1
con
  1
c-*
  1
*
  1
*
 70
     0
  1
*
  1
*
  0
XRECORD
  5
1214
102
{ACAD_REACTORS
330
1172
102
}
330
1172
100
AcDbXrecord
280
     1
  1
CRG
  1
tca-6f|*CRG*
  1
*
  1
*
 70
     0
  1
*
  1
*
  0
XRECORD
  5
1215
102
{ACAD_REACTORS
330
1172
102
}
330
1172
100
AcDbXrecord
280
     1
  1
cyan
  1
*
  1
cyan
  1
*
 70
     0
  1
*
  1
*
  0
XRECORD
  5
1216
102
{ACAD_REACTORS
330
1172
102
}
330
1172
100
AcDbXrecord
280
     1
  1
C衛生
  1
*
  1
*
  1
*
 70
     0
  1
*
  1
EISEI
  0
XRECORD
  5
1217
102
{ACAD_REACTORS
330
1172
102
}
330
1172
100
AcDbXrecord
280
     1
  1
C街区関連
  1
*
  1
*
  1
*
 70
  1024
  1
*
  1
*
  0
XRECORD
  5
1218
102
{ACAD_REACTORS
330
1172
102
}
330
1172
100
AcDbXrecord
280
     1
  1
c雑金物
  1
c*
  1
*
  1
*
 70
     0
  1
*
  1
*
  0
XRECORD
  5
1219
102
{ACAD_REACTORS
330
1172
102
}
330
1172
100
AcDbXrecord
280
     1
  1
C打計画図
  1
001*,002*,003*,004*,005*,007*,012*,015*,016*,017*,018*,019*,020*,021*,049*,050*,051*,052*,053*,054*,055*,056*,057*,058*,059*,060*,061*,062*,063*,064*,065*,066*,067*,068*,069*,070*,071*,072*,073*,074*,075*
  1
*
  1
*
 70
     0
  1
*
  1
*
  0
XRECORD
  5
121A
102
{ACAD_REACTORS
330
1172
102
}
330
1172
100
AcDbXrecord
280
     1
  1
D
  1
D*
  1
*
  1
*
 70
     0
  1
*
  1
*
  0
XRECORD
  5
121B
102
{ACAD_REACTORS
330
1172
102
}
330
1172
100
AcDbXrecord
280
     1
  1
D(表現補助)を表示
  1
D*
  1
*
  1
*
 70
     0
  1
*
  1
*
  0
XRECORD
  5
121C
102
{ACAD_REACTORS
330
1172
102
}
330
1172
100
AcDbXrecord
280
     1
  1
Ｄ・墓地　施設平面
  1
*も*
  1
*
  1
*
 70
     0
  1
*
  1
*
  0
XRECORD
  5
121D
102
{ACAD_REACTORS
330
1172
102
}
330
1172
100
AcDbXrecord
280
     1
  1
D16
  1
D16*
  1
*
  1
*
 70
     0
  1
*
  1
*
  0
XRECORD
  5
121E
102
{ACAD_REACTORS
330
1172
102
}
330
1172
100
AcDbXrecord
280
     1
  1
DASHED
  1
*
  1
*
  1
DASHED
 70
     0
  1
*
  1
*
  0
XRECORD
  5
121F
102
{ACAD_REACTORS
330
1172
102
}
330
1172
100
AcDbXrecord
280
     1
  1
DASHED2
  1
*
  1
*
  1
DASHED
 70
     0
  1
*
  1
*
  0
XRECORD
  5
1220
102
{ACAD_REACTORS
330
1172
102
}
330
1172
100
AcDbXrecord
280
     1
  1
DEMO
  1
*DEMO*
  1
*
  1
*
 70
     0
  1
*
  1
*
  0
XRECORD
  5
1221
102
{ACAD_REACTORS
330
1172
102
}
330
1172
100
AcDbXrecord
280
     1
  1
DEMOLITION
  1
*DEMO*
  1
*
  1
*
 70
     0
  1
*
  1
*
  0
XRECORD
  5
1222
102
{ACAD_REACTORS
330
1172
102
}
330
1172
100
AcDbXrecord
280
     1
  1
detail
  1
d*
  1
*
  1
*
 70
     0
  1
*
  1
*
  0
XRECORD
  5
1223
102
{ACAD_REACTORS
330
1172
102
}
330
1172
100
AcDbXrecord
280
     1
  1
details
  1
det-*
  1
*
  1
*
 70
     0
  1
*
  1
*
  0
XRECORD
  5
1224
102
{ACAD_REACTORS
330
1172
102
}
330
1172
100
AcDbXrecord
280
     1
  1
DHED
  1
*DHED*
  1
*
  1
*
 70
     0
  1
*
  1
*
  0
XRECORD
  5
1225
102
{ACAD_REACTORS
330
1172
102
}
330
1172
100
AcDbXrecord
280
     1
  1
Dim
  1
*-Dim*
  1
*
  1
*
 70
     0
  1
*
  1
*
  0
XRECORD
  5
1226
102
{ACAD_REACTORS
330
1172
102
}
330
1172
100
AcDbXrecord
280
     1
  1
disegno
  1
ben*
  1
*
  1
*
 70
     0
  1
*
  1
*
  0
XRECORD
  5
1227
102
{ACAD_REACTORS
330
1172
102
}
330
1172
100
AcDbXrecord
280
     1
  1
DOORS
  1
*
  1
*
  1
*
 70
     0
  1
*
  1
*
  0
XRECORD
  5
1228
102
{ACAD_REACTORS
330
1172
102
}
330
1172
100
AcDbXrecord
280
     1
  1
DR
  1
DR*
  1
*
  1
*
 70
     0
  1
*
  1
*
  0
XRECORD
  5
1229
102
{ACAD_REACTORS
330
1172
102
}
330
1172
100
AcDbXrecord
280
     1
  1
DT
  1
DT*
  1
*
  1
*
 70
     0
  1
*
  1
*
  0
XRECORD
  5
122A
102
{ACAD_REACTORS
330
1172
102
}
330
1172
100
AcDbXrecord
280
     1
  1
d外構
  1
d*
  1
*
  1
*
 70
     0
  1
*
  1
*
  0
XRECORD
  5
122B
102
{ACAD_REACTORS
330
1172
102
}
330
1172
100
AcDbXrecord
280
     1
  1
Ｄ街区低木
  1
*て*
  1
*
  1
*
 70
     0
  1
*
  1
*
  0
XRECORD
  5
122C
102
{ACAD_REACTORS
330
1172
102
}
330
1172
100
AcDbXrecord
280
     1
  1
D割付平面
  1
*わ*
  1
*
  1
*
 70
     0
  1
*
  1
*
  0
XRECORD
  5
122D
102
{ACAD_REACTORS
330
1172
102
}
330
1172
100
AcDbXrecord
280
     1
  1
Ｄ給水設備
  1
*ゆ*
  1
*
  1
*
 70
     0
  1
*
  1
*
  0
XRECORD
  5
122E
102
{ACAD_REACTORS
330
1172
102
}
330
1172
100
AcDbXrecord
280
     1
  1
Ｄ計画高平面
  1
*さ*
  1
*
  1
*
 70
     0
  1
*
  1
*
  0
XRECORD
  5
122F
102
{ACAD_REACTORS
330
1172
102
}
330
1172
100
AcDbXrecord
280
     1
  1
Ｄ計画平面
  1
*け*
  1
*
  1
*
 70
     0
  1
*
  1
*
  0
XRECORD
  5
1230
102
{ACAD_REACTORS
330
1172
102
}
330
1172
100
AcDbXrecord
280
     1
  1
Ｄ工事区分
  1
*ぶ*
  1
*
  1
*
 70
     0
  1
*
  1
*
  0
XRECORD
  5
1231
102
{ACAD_REACTORS
330
1172
102
}
330
1172
100
AcDbXrecord
280
     1
  1
Ｄ高木植栽
  1
*こ*
  1
*
  1
*
 70
     0
  1
*
  1
*
  0
XRECORD
  5
1232
102
{ACAD_REACTORS
330
1172
102
}
330
1172
100
AcDbXrecord
280
     1
  1
Ｄ施設平面
  1
*し*
  1
*
  1
*
 70
     0
  1
*
  1
*
  0
XRECORD
  5
1233
102
{ACAD_REACTORS
330
1172
102
}
330
1172
100
AcDbXrecord
280
     1
  1
Ｄ照明設備
  1
*め*
  1
*
  1
*
 70
     0
  1
*
  1
*
  0
XRECORD
  5
1234
102
{ACAD_REACTORS
330
1172
102
}
330
1172
100
AcDbXrecord
280
     1
  1
Ｄ低木
  1
*て*
  1
*
  1
*
 70
     0
  1
*
  1
*
  0
XRECORD
  5
1235
102
{ACAD_REACTORS
330
1172
102
}
330
1172
100
AcDbXrecord
280
     1
  1
Ｄ電気設備
  1
*で*
  1
*
  1
*
 70
     0
  1
*
  1
*
  0
XRECORD
  5
1236
102
{ACAD_REACTORS
330
1172
102
}
330
1172
100
AcDbXrecord
280
     1
  1
Ｄ土壌改良
  1
*ど*
  1
*
  1
*
 70
     0
  1
*
  1
*
  0
XRECORD
  5
1237
102
{ACAD_REACTORS
330
1172
102
}
330
1172
100
AcDbXrecord
280
     1
  1
Ｄ排水平面
  1
*は*
  1
*
  1
*
 70
     0
  1
*
  1
*
  0
XRECORD
  5
1238
102
{ACAD_REACTORS
330
1172
102
}
330
1172
100
AcDbXrecord
280
     1
  1
D舗装平面
  1
*ほ*
  1
*
  1
*
 70
     0
  1
*
  1
*
  0
XRECORD
  5
1239
102
{ACAD_REACTORS
330
1172
102
}
330
1172
100
AcDbXrecord
280
     1
  1
Ｄ墓地施設平面
  1
*も*
  1
*
  1
*
 70
     0
  1
*
  1
*
  0
XRECORD
  5
123A
102
{ACAD_REACTORS
330
1172
102
}
330
1172
100
AcDbXrecord
280
     1
  1
D墓地排水
  1
*は*
  1
*
  1
*
 70
     0
  1
*
  1
*
  0
XRECORD
  5
123B
102
{ACAD_REACTORS
330
1172
102
}
330
1172
100
AcDbXrecord
280
     1
  1
E
  1
*E-*
  1
*
  1
*
 70
     0
  1
*
  1
*
  0
XRECORD
  5
123C
102
{ACAD_REACTORS
330
1172
102
}
330
1172
100
AcDbXrecord
280
     1
  1
E(点線系)を表示
  1
E*
  1
*
  1
*
 70
     0
  1
*
  1
*
  0
XRECORD
  5
123D
102
{ACAD_REACTORS
330
1172
102
}
330
1172
100
AcDbXrecord
280
     1
  1
EEEE
  1
*
  1
*
  1
*
 70
  1804
  1
*
  1
*
  0
XRECORD
  5
123E
102
{ACAD_REACTORS
330
1172
102
}
330
1172
100
AcDbXrecord
280
     1
  1
EISEI
  1
*4EISEI
  1
4
  1
*
 70
     0
  1
*
  1
*
  0
XRECORD
  5
123F
102
{ACAD_REACTORS
330
1172
102
}
330
1172
100
AcDbXrecord
280
     1
  1
elec
  1
01_elec-tgbt
  1
*
  1
*
 70
     0
  1
*
  1
*
  0
XRECORD
  5
1240
102
{ACAD_REACTORS
330
1172
102
}
330
1172
100
AcDbXrecord
280
     1
  1
ERAS1F
  1
*2ERAS1F
  1
*
  1
*
 70
     0
  1
*
  1
*
  0
XRECORD
  5
1241
102
{ACAD_REACTORS
330
1172
102
}
330
1172
100
AcDbXrecord
280
     1
  1
existing
  1
afl-* 
  1
*
  1
*
 70
     0
  1
*
  1
*
  0
XRECORD
  5
1242
102
{ACAD_REACTORS
330
1172
102
}
330
1172
100
AcDbXrecord
280
     1
  1
Exit
  1
*exit*
  1
*
  1
*
 70
     0
  1
*
  1
*
  0
XRECORD
  5
1243
102
{ACAD_REACTORS
330
1172
102
}
330
1172
100
AcDbXrecord
280
     1
  1
F
  1
F*
  1
*
  1
*
 70
     0
  1
*
  1
*
  0
XRECORD
  5
1244
102
{ACAD_REACTORS
330
1172
102
}
330
1172
100
AcDbXrecord
280
     1
  1
F(断面)を表示
  1
F*
  1
*
  1
*
 70
     0
  1
*
  1
*
  0
XRECORD
  5
1245
102
{ACAD_REACTORS
330
1172
102
}
330
1172
100
AcDbXrecord
280
     1
  1
F1
  1
*
  1
*
  1
*
 70
     0
  1
*
  1
*
  0
XRECORD
  5
1246
102
{ACAD_REACTORS
330
1172
102
}
330
1172
100
AcDbXrecord
280
     1
  1
face4
  1
*face4*
  1
*
  1
*
 70
     0
  1
*
  1
*
  0
XRECORD
  5
1247
102
{ACAD_REACTORS
330
1172
102
}
330
1172
100
AcDbXrecord
280
     1
  1
FC_CLADDING
  1
*FC*
  1
*
  1
*
 70
     0
  1
*
  1
*
  0
XRECORD
  5
1248
102
{ACAD_REACTORS
330
1172
102
}
330
1172
100
AcDbXrecord
280
     1
  1
FENCE
  1
*FENCE*
  1
*
  1
*
 70
     0
  1
*
  1
*
  0
XRECORD
  5
1249
102
{ACAD_REACTORS
330
1172
102
}
330
1172
100
AcDbXrecord
280
     1
  1
FF
  1
*
  1
*
  1
*
 70
     4
  1
*
  1
*
  0
XRECORD
  5
124A
102
{ACAD_REACTORS
330
1172
102
}
330
1172
100
AcDbXrecord
280
     1
  1
FH
  1
*FH*
  1
*
  1
*
 70
     0
  1
*
  1
*
  0
XRECORD
  5
124B
102
{ACAD_REACTORS
330
1172
102
}
330
1172
100
AcDbXrecord
280
     1
  1
FILTER1
  1
*
  1
*
  1
*
 70
     0
  1
*
  1
*
  0
XRECORD
  5
124C
102
{ACAD_REACTORS
330
1172
102
}
330
1172
100
AcDbXrecord
280
     1
  1
fini
  1
*fini*
  1
*
  1
*
 70
     0
  1
*
  1
*
  0
XRECORD
  5
124D
102
{ACAD_REACTORS
330
1172
102
}
330
1172
100
AcDbXrecord
280
     1
  1
finish
  1
n-*
  1
*
  1
*
 70
     0
  1
*
  1
*
  0
XRECORD
  5
124E
102
{ACAD_REACTORS
330
1172
102
}
330
1172
100
AcDbXrecord
280
     1
  1
FIRE
  1
*FIRE*
  1
*
  1
*
 70
     0
  1
*
  1
*
  0
XRECORD
  5
124F
102
{ACAD_REACTORS
330
1172
102
}
330
1172
100
AcDbXrecord
280
     1
  1
fixture
  1
f-*
  1
*
  1
*
 70
     0
  1
*
  1
*
  0
XRECORD
  5
1250
102
{ACAD_REACTORS
330
1172
102
}
330
1172
100
AcDbXrecord
280
     1
  1
fl
  1
*FL*
  1
*
  1
*
 70
     0
  1
*
  1
*
  0
XRECORD
  5
1251
102
{ACAD_REACTORS
330
1172
102
}
330
1172
100
AcDbXrecord
280
     1
  1
Floor
  1
A-Flor*
  1
*
  1
*
 70
     0
  1
*
  1
*
  0
XRECORD
  5
1252
102
{ACAD_REACTORS
330
1172
102
}
330
1172
100
AcDbXrecord
280
     1
  1
FLOOR PLAN
  1
A-FLR-*
  1
*
  1
*
 70
     0
  1
*
  1
*
  0
XRECORD
  5
1253
102
{ACAD_REACTORS
330
1172
102
}
330
1172
100
AcDbXrecord
280
     1
  1
fr
  1
*
  1
*
  1
*
 70
     4
  1
*
  1
*
  0
XRECORD
  5
1254
102
{ACAD_REACTORS
330
1172
102
}
330
1172
100
AcDbXrecord
280
     1
  1
freeze
  1
*
  1
*
  1
*
 70
     4
  1
*
  1
*
  0
XRECORD
  5
1255
102
{ACAD_REACTORS
330
1172
102
}
330
1172
100
AcDbXrecord
280
     1
  1
FRZ
  1
*
  1
*
  1
*
 70
     4
  1
*
  1
*
  0
XRECORD
  5
1256
102
{ACAD_REACTORS
330
1172
102
}
330
1172
100
AcDbXrecord
280
     1
  1
Fugou
  1
*-Fugou*
  1
*
  1
*
 70
     0
  1
*
  1
*
  0
XRECORD
  5
1257
102
{ACAD_REACTORS
330
1172
102
}
330
1172
100
AcDbXrecord
280
     1
  1
FUGOU-TATEGU
  1
*FUGOU-TATEGU
  1
*
  1
*
 70
     0
  1
*
  1
*
  0
XRECORD
  5
1258
102
{ACAD_REACTORS
330
1172
102
}
330
1172
100
AcDbXrecord
280
     1
  1
FUKI
  1
*FUKI
  1
*
  1
*
 70
     0
  1
*
  1
*
  0
XRECORD
  5
1259
102
{ACAD_REACTORS
330
1172
102
}
330
1172
100
AcDbXrecord
280
     1
  1
FURN
  1
*F-*
  1
*
  1
*
 70
     0
  1
*
  1
*
  0
XRECORD
  5
125A
102
{ACAD_REACTORS
330
1172
102
}
330
1172
100
AcDbXrecord
280
     1
  1
FURNITURE
  1
*FN*
  1
*
  1
*
 70
     0
  1
*
  1
*
  0
XRECORD
  5
125B
102
{ACAD_REACTORS
330
1172
102
}
330
1172
100
AcDbXrecord
280
     1
  1
FUSE_00
  1
*
  1
*
  1
*
 70
     0
  1
*
  1
*
  0
XRECORD
  5
125C
102
{ACAD_REACTORS
330
1172
102
}
330
1172
100
AcDbXrecord
280
     1
  1
G
  1
*-G*
  1
*
  1
*
 70
     0
  1
*
  1
*
  0
XRECORD
  5
125D
102
{ACAD_REACTORS
330
1172
102
}
330
1172
100
AcDbXrecord
280
     1
  1
G(開口)を表示
  1
G*
  1
*
  1
*
 70
     0
  1
*
  1
*
  0
XRECORD
  5
125E
102
{ACAD_REACTORS
330
1172
102
}
330
1172
100
AcDbXrecord
280
     1
  1
GAIKOU
  1
*
  1
*
  1
*
 70
     0
  1
*
  1
*
  0
XRECORD
  5
125F
102
{ACAD_REACTORS
330
1172
102
}
330
1172
100
AcDbXrecord
280
     1
  1
gel
  1
*ILLUMI*
  1
*
  1
*
 70
     0
  1
*
  1
*
  0
XRECORD
  5
1260
102
{ACAD_REACTORS
330
1172
102
}
330
1172
100
AcDbXrecord
280
     1
  1
gen
  1
g*,*$*
  1
*
  1
*
 70
     0
  1
*
  1
*
  0
XRECORD
  5
1261
102
{ACAD_REACTORS
330
1172
102
}
330
1172
100
AcDbXrecord
280
     1
  1
gondora
  1
a-gondora*
  1
*
  1
*
 70
     0
  1
*
  1
*
  0
XRECORD
  5
1262
102
{ACAD_REACTORS
330
1172
102
}
330
1172
100
AcDbXrecord
280
     1
  1
green
  1
*
  1
green
  1
*
 70
     0
  1
*
  1
*
  0
XRECORD
  5
1263
102
{ACAD_REACTORS
330
1172
102
}
330
1172
100
AcDbXrecord
280
     1
  1
GRID
  1
G*
  1
*
  1
*
 70
     0
  1
*
  1
*
  0
XRECORD
  5
1264
102
{ACAD_REACTORS
330
1172
102
}
330
1172
100
AcDbXrecord
280
     1
  1
gris
  1
*
  1
*
  1
*
 70
     0
  1
*
  1
*
  0
XRECORD
  5
1265
102
{ACAD_REACTORS
330
1172
102
}
330
1172
100
AcDbXrecord
280
     1
  1
H
  1
00*,01*,02*,03*,05*,06*,1*,2*,3*,4*,5*,6*,8*,D*,
  1
*
  1
*
 70
     0
  1
*
  1
*
  0
XRECORD
  5
1266
102
{ACAD_REACTORS
330
1172
102
}
330
1172
100
AcDbXrecord
280
     1
  1
H-
  1
H-*
  1
*
  1
*
 70
     0
  1
*
  1
*
  0
XRECORD
  5
1267
102
{ACAD_REACTORS
330
1172
102
}
330
1172
100
AcDbXrecord
280
     1
  1
H-SIN
  1
*H-SIN
  1
*
  1
*
 70
     0
  1
*
  1
*
  0
XRECORD
  5
1268
102
{ACAD_REACTORS
330
1172
102
}
330
1172
100
AcDbXrecord
280
     1
  1
H(見掛)を表示
  1
H*
  1
*
  1
*
 70
     0
  1
*
  1
*
  0
XRECORD
  5
1269
102
{ACAD_REACTORS
330
1172
102
}
330
1172
100
AcDbXrecord
280
     1
  1
HA
  1
*HA*
  1
*
  1
*
 70
     0
  1
*
  1
*
  0
XRECORD
  5
126A
102
{ACAD_REACTORS
330
1172
102
}
330
1172
100
AcDbXrecord
280
     1
  1
haikin
  1
2-*
  1
*
  1
*
 70
     0
  1
*
  1
*
  0
XRECORD
  5
126B
102
{ACAD_REACTORS
330
1172
102
}
330
1172
100
AcDbXrecord
280
     1
  1
HAISEN
  1
*1,HAISEN
  1
*
  1
*
 70
     0
  1
*
  1
*
  0
XRECORD
  5
126C
102
{ACAD_REACTORS
330
1172
102
}
330
1172
100
AcDbXrecord
280
     1
  1
HARI
  1
*HARI
  1
*
  1
*
 70
     0
  1
*
  1
*
  0
XRECORD
  5
126D
102
{ACAD_REACTORS
330
1172
102
}
330
1172
100
AcDbXrecord
280
     1
  1
hasira
  1
*hasira*
  1
*
  1
*
 70
     0
  1
*
  1
*
  0
XRECORD
  5
126E
102
{ACAD_REACTORS
330
1172
102
}
330
1172
100
AcDbXrecord
280
     1
  1
HATCH
  1
*HATCH*
  1
*
  1
*
 70
     0
  1
*
  1
*
  0
XRECORD
  5
126F
102
{ACAD_REACTORS
330
1172
102
}
330
1172
100
AcDbXrecord
280
     1
  1
HCP
  1
*HCP*
  1
*
  1
*
 70
     0
  1
*
  1
*
  0
XRECORD
  5
1270
102
{ACAD_REACTORS
330
1172
102
}
330
1172
100
AcDbXrecord
280
     1
  1
HEISHO
  1
4MAJ
  1
*
  1
*
 70
     0
  1
*
  1
*
  0
XRECORD
  5
1271
102
{ACAD_REACTORS
330
1172
102
}
330
1172
100
AcDbXrecord
280
     1
  1
HEISHO2
  1
4MAJ,3CWD,3TAT
  1
*
  1
*
 70
     0
  1
*
  1
*
  0
XRECORD
  5
1272
102
{ACAD_REACTORS
330
1172
102
}
330
1172
100
AcDbXrecord
280
     1
  1
HIDDEN
  1
*
  1
*
  1
HIDDEN
 70
     0
  1
*
  1
*
  0
XRECORD
  5
1273
102
{ACAD_REACTORS
330
1172
102
}
330
1172
100
AcDbXrecord
280
     1
  1
HOJO
  1
*HOJO
  1
*
  1
*
 70
     0
  1
*
  1
*
  0
XRECORD
  5
1274
102
{ACAD_REACTORS
330
1172
102
}
330
1172
100
AcDbXrecord
280
     1
  1
hollywood
  1
*
  1
*
  1
*
 70
    12
  1
*
  1
*
  0
XRECORD
  5
1275
102
{ACAD_REACTORS
330
1172
102
}
330
1172
100
AcDbXrecord
280
     1
  1
HOTEL
  1
*HOT*
  1
*
  1
*
 70
     0
  1
*
  1
*
  0
XRECORD
  5
1276
102
{ACAD_REACTORS
330
1172
102
}
330
1172
100
AcDbXrecord
280
     1
  1
huse
  1
0,defpoints
  1
*
  1
*
 70
     0
  1
*
  1
*
  0
XRECORD
  5
1277
102
{ACAD_REACTORS
330
1172
102
}
330
1172
100
AcDbXrecord
280
     1
  1
HYOKI
  1
*HYOKI
  1
*
  1
*
 70
     0
  1
*
  1
*
  0
XRECORD
  5
1278
102
{ACAD_REACTORS
330
1172
102
}
330
1172
100
AcDbXrecord
280
     1
  1
HYOUKI
  1
*
  1
*
  1
*
 70
     0
  1
*
  1
*
  0
XRECORD
  5
1279
102
{ACAD_REACTORS
330
1172
102
}
330
1172
100
AcDbXrecord
280
     1
  1
i
  1
*
  1
*
  1
*
 70
     0
  1
*
  1
*
  0
XRECORD
  5
127A
102
{ACAD_REACTORS
330
1172
102
}
330
1172
100
AcDbXrecord
280
     1
  1
I(二次部材系))を表示
  1
I*
  1
*
  1
*
 70
     0
  1
*
  1
*
  0
XRECORD
  5
127B
102
{ACAD_REACTORS
330
1172
102
}
330
1172
100
AcDbXrecord
280
     1
  1
I2
  1
*I2CL*
  1
*
  1
*
 70
     0
  1
*
  1
*
  0
XRECORD
  5
127C
102
{ACAD_REACTORS
330
1172
102
}
330
1172
100
AcDbXrecord
280
     1
  1
i2cl
  1
*i2c?*
  1
*
  1
*
 70
     0
  1
*
  1
*
  0
XRECORD
  5
127D
102
{ACAD_REACTORS
330
1172
102
}
330
1172
100
AcDbXrecord
280
     1
  1
i5
  1
*i5*
  1
*
  1
*
 70
     0
  1
*
  1
*
  0
XRECORD
  5
127E
102
{ACAD_REACTORS
330
1172
102
}
330
1172
100
AcDbXrecord
280
     1
  1
i9
  1
*i9*
  1
*
  1
*
 70
     0
  1
*
  1
*
  0
XRECORD
  5
127F
102
{ACAD_REACTORS
330
1172
102
}
330
1172
100
AcDbXrecord
280
     1
  1
in
  1
*
  1
*
  1
*
 70
     4
  1
*
  1
*
  0
XRECORD
  5
1280
102
{ACAD_REACTORS
330
1172
102
}
330
1172
100
AcDbXrecord
280
     1
  1
INSERT図
  1
*
  1
*
  1
*
 70
    12
  1
*
  1
*
  0
XRECORD
  5
1281
102
{ACAD_REACTORS
330
1172
102
}
330
1172
100
AcDbXrecord
280
     1
  1
ISSUE
  1
*-ISSUE1-*
  1
*
  1
*
 70
     0
  1
*
  1
*
  0
XRECORD
  5
1282
102
{ACAD_REACTORS
330
1172
102
}
330
1172
100
AcDbXrecord
280
     1
  1
J
  1
*J*
  1
*
  1
*
 70
     0
  1
*
  1
*
  0
XRECORD
  5
1283
102
{ACAD_REACTORS
330
1172
102
}
330
1172
100
AcDbXrecord
280
     1
  1
K
  1
K*
  1
*
  1
*
 70
     0
  1
*
  1
*
  0
XRECORD
  5
1284
102
{ACAD_REACTORS
330
1172
102
}
330
1172
100
AcDbXrecord
280
     1
  1
KABE
  1
*KABE
  1
*
  1
*
 70
     0
  1
*
  1
*
  0
XRECORD
  5
1285
102
{ACAD_REACTORS
330
1172
102
}
330
1172
100
AcDbXrecord
280
     1
  1
KABESHIN
  1
*A12
  1
*
  1
*
 70
     0
  1
*
  1
*
  0
XRECORD
  5
1286
102
{ACAD_REACTORS
330
1172
102
}
330
1172
100
AcDbXrecord
280
     1
  1
KAGU
  1
*KAGU*
  1
*
  1
*
 70
     0
  1
*
  1
*
  0
XRECORD
  5
1287
102
{ACAD_REACTORS
330
1172
102
}
330
1172
100
AcDbXrecord
280
     1
  1
key
  1
keyplan
  1
*
  1
*
 70
     0
  1
*
  1
*
  0
XRECORD
  5
1288
102
{ACAD_REACTORS
330
1172
102
}
330
1172
100
AcDbXrecord
280
     1
  1
KI
  1
KI*
  1
*
  1
*
 70
     0
  1
*
  1
*
  0
XRECORD
  5
1289
102
{ACAD_REACTORS
330
1172
102
}
330
1172
100
AcDbXrecord
280
     1
  1
KIGO
  1
*KIGO*
  1
*
  1
*
 70
     0
  1
*
  1
*
  0
XRECORD
  5
128A
102
{ACAD_REACTORS
330
1172
102
}
330
1172
100
AcDbXrecord
280
     1
  1
KIJUN
  1
*KIJUN
  1
*
  1
*
 70
     0
  1
*
  1
*
  0
XRECORD
  5
128B
102
{ACAD_REACTORS
330
1172
102
}
330
1172
100
AcDbXrecord
280
     1
  1
kiso
  1
f1*
  1
*
  1
*
 70
     0
  1
*
  1
*
  0
XRECORD
  5
128C
102
{ACAD_REACTORS
330
1172
102
}
330
1172
100
AcDbXrecord
280
     1
  1
KSIN
  1
*2KSIN
  1
21
  1
*
 70
     0
  1
*
  1
*
  0
XRECORD
  5
128D
102
{ACAD_REACTORS
330
1172
102
}
330
1172
100
AcDbXrecord
280
     1
  1
kui
  1
*
  1
*
  1
*
 70
     4
  1
*
  1
*
  0
XRECORD
  5
128E
102
{ACAD_REACTORS
330
1172
102
}
330
1172
100
AcDbXrecord
280
     1
  1
KUTAI
  1
*
  1
*
  1
*
 70
     0
  1
*
  1
*
  0
XRECORD
  5
128F
102
{ACAD_REACTORS
330
1172
102
}
330
1172
100
AcDbXrecord
280
     1
  1
L
  1
L*
  1
*
  1
*
 70
     0
  1
*
  1
*
  0
XRECORD
  5
1290
102
{ACAD_REACTORS
330
1172
102
}
330
1172
100
AcDbXrecord
280
     1
  1
LEGEND
  1
*-C-*
  1
*
  1
*
 70
     0
  1
*
  1
*
  0
XRECORD
  5
1291
102
{ACAD_REACTORS
330
1172
102
}
330
1172
100
AcDbXrecord
280
     1
  1
LGS
  1
*LGS*
  1
*
  1
*
 70
     0
  1
*
  1
*
  0
XRECORD
  5
1292
102
{ACAD_REACTORS
330
1172
102
}
330
1172
100
AcDbXrecord
280
     1
  1
light
  1
*light*
  1
*
  1
*
 70
     0
  1
*
  1
*
  0
XRECORD
  5
1293
102
{ACAD_REACTORS
330
1172
102
}
330
1172
100
AcDbXrecord
280
     1
  1
LIST
  1
*LIST*
  1
*
  1
*
 70
     0
  1
*
  1
*
  0
XRECORD
  5
1294
102
{ACAD_REACTORS
330
1172
102
}
330
1172
100
AcDbXrecord
280
     1
  1
lixo
  1
*
  1
*
  1
*
 70
  3072
  1
*
  1
*
  0
XRECORD
  5
1295
102
{ACAD_REACTORS
330
1172
102
}
330
1172
100
AcDbXrecord
280
     1
  1
LOCK
  1
*
  1
*
  1
*
 70
   256
  1
*
  1
*
  0
XRECORD
  5
1296
102
{ACAD_REACTORS
330
1172
102
}
330
1172
100
AcDbXrecord
280
     1
  1
LTA
  1
*
  1
*
  1
*
 70
   768
  1
*
  1
*
  0
XRECORD
  5
1297
102
{ACAD_REACTORS
330
1172
102
}
330
1172
100
AcDbXrecord
280
     1
  1
Ｌ建具
  1
L*tategu*
  1
*
  1
*
 70
     0
  1
*
  1
*
  0
XRECORD
  5
1298
102
{ACAD_REACTORS
330
1172
102
}
330
1172
100
AcDbXrecord
280
     1
  1
M
  1
M*
  1
*
  1
*
 70
     0
  1
*
  1
*
  0
XRECORD
  5
1299
102
{ACAD_REACTORS
330
1172
102
}
330
1172
100
AcDbXrecord
280
     1
  1
MA
  1
MA*
  1
*
  1
*
 70
     0
  1
*
  1
*
  0
XRECORD
  5
129A
102
{ACAD_REACTORS
330
1172
102
}
330
1172
100
AcDbXrecord
280
     1
  1
MACONNERIE
  1
*
  1
*
  1
*
 70
     0
  1
*
  1
*
  0
XRECORD
  5
129B
102
{ACAD_REACTORS
330
1172
102
}
330
1172
100
AcDbXrecord
280
     1
  1
magenta
  1
*
  1
magenta
  1
*
 70
     0
  1
*
  1
*
  0
XRECORD
  5
129C
102
{ACAD_REACTORS
330
1172
102
}
330
1172
100
AcDbXrecord
280
     1
  1
magenta-bleu
  1
*
  1
magenta,bleu
  1
*
 70
     0
  1
*
  1
*
  0
XRECORD
  5
129D
102
{ACAD_REACTORS
330
1172
102
}
330
1172
100
AcDbXrecord
280
     1
  1
maji
  1
*A12
  1
*
  1
*
 70
     0
  1
*
  1
*
  0
XRECORD
  5
129E
102
{ACAD_REACTORS
330
1172
102
}
330
1172
100
AcDbXrecord
280
     1
  1
MAJIKIRI
  1
*MAJIKIRI
  1
*
  1
*
 70
     0
  1
*
  1
*
  0
XRECORD
  5
129F
102
{ACAD_REACTORS
330
1172
102
}
330
1172
100
AcDbXrecord
280
     1
  1
marco
  1
marco*
  1
*
  1
*
 70
     0
  1
*
  1
*
  0
XRECORD
  5
12A0
102
{ACAD_REACTORS
330
1172
102
}
330
1172
100
AcDbXrecord
280
     1
  1
MB
  1
*MB
  1
*
  1
*
 70
     0
  1
*
  1
*
  0
XRECORD
  5
12A1
102
{ACAD_REACTORS
330
1172
102
}
330
1172
100
AcDbXrecord
280
     1
  1
meji
  1
*MEJI
  1
*
  1
*
 70
     0
  1
*
  1
*
  0
XRECORD
  5
12A2
102
{ACAD_REACTORS
330
1172
102
}
330
1172
100
AcDbXrecord
280
     1
  1
merceologico
  1
mq*
  1
*
  1
*
 70
     0
  1
*
  1
*
  0
XRECORD
  5
12A3
102
{ACAD_REACTORS
330
1172
102
}
330
1172
100
AcDbXrecord
280
     1
  1
MILL
  1
*MILL*
  1
*
  1
*
 70
     0
  1
*
  1
*
  0
XRECORD
  5
12A4
102
{ACAD_REACTORS
330
1172
102
}
330
1172
100
AcDbXrecord
280
     1
  1
MILLWORK
  1
*mILL*
  1
*
  1
*
 70
     0
  1
*
  1
*
  0
XRECORD
  5
12A5
102
{ACAD_REACTORS
330
1172
102
}
330
1172
100
AcDbXrecord
280
     1
  1
miwa
  1
*
  1
*
  1
*
 70
     0
  1
*
  1
*
  0
XRECORD
  5
12A6
102
{ACAD_REACTORS
330
1172
102
}
330
1172
100
AcDbXrecord
280
     1
  1
MOJI
  1
*MOJI
  1
*
  1
*
 70
     0
  1
*
  1
*
  0
XRECORD
  5
12A7
102
{ACAD_REACTORS
330
1172
102
}
330
1172
100
AcDbXrecord
280
     1
  1
MOJI100
  1
*5MOJI100
  1
3
  1
*
 70
     0
  1
*
  1
*
  0
XRECORD
  5
12A8
102
{ACAD_REACTORS
330
1172
102
}
330
1172
100
AcDbXrecord
280
     1
  1
N
  1
*N*
  1
*
  1
*
 70
     0
  1
*
  1
*
  0
XRECORD
  5
12A9
102
{ACAD_REACTORS
330
1172
102
}
330
1172
100
AcDbXrecord
280
     1
  1
N-
  1
N-*
  1
*
  1
*
 70
     0
  1
*
  1
*
  0
XRECORD
  5
12AA
102
{ACAD_REACTORS
330
1172
102
}
330
1172
100
AcDbXrecord
280
     1
  1
NAM
  1
*NAM*
  1
*
  1
*
 70
     0
  1
*
  1
*
  0
XRECORD
  5
12AB
102
{ACAD_REACTORS
330
1172
102
}
330
1172
100
AcDbXrecord
280
     1
  1
NEW
  1
*NEW*
  1
*
  1
*
 70
     0
  1
*
  1
*
  0
XRECORD
  5
12AC
102
{ACAD_REACTORS
330
1172
102
}
330
1172
100
AcDbXrecord
280
     1
  1
NHK
  1
N*
  1
*
  1
*
 70
     0
  1
*
  1
*
  0
XRECORD
  5
12AD
102
{ACAD_REACTORS
330
1172
102
}
330
1172
100
AcDbXrecord
280
     1
  1
no xref
  1
~*|*
  1
*
  1
*
 70
     0
  1
*
  1
*
  0
XRECORD
  5
12AE
102
{ACAD_REACTORS
330
1172
102
}
330
1172
100
AcDbXrecord
280
     1
  1
note
  1
tca-6f|*note*
  1
*
  1
*
 70
     0
  1
*
  1
*
  0
XRECORD
  5
12AF
102
{ACAD_REACTORS
330
1172
102
}
330
1172
100
AcDbXrecord
280
     1
  1
NUM
  1
*NUM*
  1
*
  1
*
 70
     0
  1
*
  1
*
  0
XRECORD
  5
12B0
102
{ACAD_REACTORS
330
1172
102
}
330
1172
100
AcDbXrecord
280
     1
  1
NUMB
  1
*NUM*
  1
*
  1
*
 70
     0
  1
*
  1
*
  0
XRECORD
  5
12B1
102
{ACAD_REACTORS
330
1172
102
}
330
1172
100
AcDbXrecord
280
     1
  1
O
  1
*O*
  1
*
  1
*
 70
     0
  1
*
  1
*
  0
XRECORD
  5
12B2
102
{ACAD_REACTORS
330
1172
102
}
330
1172
100
AcDbXrecord
280
     1
  1
OF
  1
*
  1
*
  1
*
 70
     3
  1
*
  1
*
  0
XRECORD
  5
12B3
102
{ACAD_REACTORS
330
1172
102
}
330
1172
100
AcDbXrecord
280
     1
  1
OFF
  1
*
  1
*
  1
*
 70
     3
  1
*
  1
*
  0
XRECORD
  5
12B4
102
{ACAD_REACTORS
330
1172
102
}
330
1172
100
AcDbXrecord
280
     1
  1
on
  1
*
  1
*
  1
*
 70
    13
  1
*
  1
*
  0
XRECORD
  5
12B5
102
{ACAD_REACTORS
330
1172
102
}
330
1172
100
AcDbXrecord
280
     1
  1
option 1
  1
1*
  1
*
  1
*
 70
     0
  1
*
  1
*
  0
XRECORD
  5
12B6
102
{ACAD_REACTORS
330
1172
102
}
330
1172
100
AcDbXrecord
280
     1
  1
option 2
  1
2*
  1
*
  1
*
 70
     0
  1
*
  1
*
  0
XRECORD
  5
12B7
102
{ACAD_REACTORS
330
1172
102
}
330
1172
100
AcDbXrecord
280
     1
  1
OUTLINE
  1
T_*|OUTLINE
  1
*
  1
*
 70
     0
  1
*
  1
*
  0
XRECORD
  5
12B8
102
{ACAD_REACTORS
330
1172
102
}
330
1172
100
AcDbXrecord
280
     1
  1
P
  1
*-P*
  1
*
  1
*
 70
     0
  1
*
  1
*
  0
XRECORD
  5
12B9
102
{ACAD_REACTORS
330
1172
102
}
330
1172
100
AcDbXrecord
280
     1
  1
pa
  1
*pa*
  1
*
  1
*
 70
     0
  1
*
  1
*
  0
XRECORD
  5
12BA
102
{ACAD_REACTORS
330
1172
102
}
330
1172
100
AcDbXrecord
280
     1
  1
PALFOND
  1
*
  1
*
  1
*
 70
    13
  1
*
  1
*
  0
XRECORD
  5
12BB
102
{ACAD_REACTORS
330
1172
102
}
330
1172
100
AcDbXrecord
280
     1
  1
PAT
  1
*PAT*
  1
*
  1
*
 70
     0
  1
*
  1
*
  0
XRECORD
  5
12BC
102
{ACAD_REACTORS
330
1172
102
}
330
1172
100
AcDbXrecord
280
     1
  1
PC
  1
PC*
  1
*
  1
*
 70
     0
  1
*
  1
*
  0
XRECORD
  5
12BD
102
{ACAD_REACTORS
330
1172
102
}
330
1172
100
AcDbXrecord
280
     1
  1
PISO
  1
*PISO
  1
*
  1
*
 70
     0
  1
*
  1
*
  0
XRECORD
  5
12BE
102
{ACAD_REACTORS
330
1172
102
}
330
1172
100
AcDbXrecord
280
     1
  1
PLAN
  1
A*,B*,SITE*
  1
*
  1
*
 70
     0
  1
*
  1
*
  0
XRECORD
  5
12BF
102
{ACAD_REACTORS
330
1172
102
}
330
1172
100
AcDbXrecord
280
     1
  1
PLMB
  1
*PLMB*
  1
*
  1
*
 70
     0
  1
*
  1
*
  0
XRECORD
  5
12C0
102
{ACAD_REACTORS
330
1172
102
}
330
1172
100
AcDbXrecord
280
     1
  1
plot
  1
*
  1
*
  1
*
 70
     1
  1
*
  1
*
  0
XRECORD
  5
12C1
102
{ACAD_REACTORS
330
1172
102
}
330
1172
100
AcDbXrecord
280
     1
  1
PLUMB
  1
*PLUMB*
  1
*
  1
*
 70
     0
  1
*
  1
*
  0
XRECORD
  5
12C2
102
{ACAD_REACTORS
330
1172
102
}
330
1172
100
AcDbXrecord
280
     1
  1
PNL
  1
*PNL*
  1
*
  1
*
 70
     0
  1
*
  1
*
  0
XRECORD
  5
12C3
102
{ACAD_REACTORS
330
1172
102
}
330
1172
100
AcDbXrecord
280
     1
  1
power
  1
p-*
  1
*
  1
*
 70
     0
  1
*
  1
*
  0
XRECORD
  5
12C4
102
{ACAD_REACTORS
330
1172
102
}
330
1172
100
AcDbXrecord
280
     1
  1
PRT
  1
*PRT*
  1
*
  1
*
 70
     0
  1
*
  1
*
  0
XRECORD
  5
12C5
102
{ACAD_REACTORS
330
1172
102
}
330
1172
100
AcDbXrecord
280
     1
  1
q
  1
*
  1
*
  1
*
 70
     4
  1
*
  1
*
  0
XRECORD
  5
12C6
102
{ACAD_REACTORS
330
1172
102
}
330
1172
100
AcDbXrecord
280
     1
  1
R
  1
R*
  1
*
  1
*
 70
     0
  1
*
  1
*
  0
XRECORD
  5
12C7
102
{ACAD_REACTORS
330
1172
102
}
330
1172
100
AcDbXrecord
280
     1
  1
rack
  1
*rack*
  1
*
  1
*
 70
     0
  1
*
  1
*
  0
XRECORD
  5
12C8
102
{ACAD_REACTORS
330
1172
102
}
330
1172
100
AcDbXrecord
280
     1
  1
RC
  1
*RC
  1
*
  1
*
 70
     0
  1
*
  1
*
  0
XRECORD
  5
12C9
102
{ACAD_REACTORS
330
1172
102
}
330
1172
100
AcDbXrecord
280
     1
  1
RCP
  1
A*,C*
  1
*
  1
*
 70
     0
  1
*
  1
*
  0
XRECORD
  5
12CA
102
{ACAD_REACTORS
330
1172
102
}
330
1172
100
AcDbXrecord
280
     1
  1
rm
  1
*r*
  1
*
  1
*
 70
     0
  1
*
  1
*
  0
XRECORD
  5
12CB
102
{ACAD_REACTORS
330
1172
102
}
330
1172
100
AcDbXrecord
280
     1
  1
RMTAGS
  1
R*
  1
*
  1
*
 70
     0
  1
*
  1
*
  0
XRECORD
  5
12CC
102
{ACAD_REACTORS
330
1172
102
}
330
1172
100
AcDbXrecord
280
     1
  1
RNUM
  1
*NUM*
  1
*
  1
*
 70
     0
  1
*
  1
*
  0
XRECORD
  5
12CD
102
{ACAD_REACTORS
330
1172
102
}
330
1172
100
AcDbXrecord
280
     1
  1
ROOM
  1
*RM*
  1
*
  1
*
 70
     0
  1
*
  1
*
  0
XRECORD
  5
12CE
102
{ACAD_REACTORS
330
1172
102
}
330
1172
100
AcDbXrecord
280
     1
  1
roomno
  1
*num*
  1
*
  1
*
 70
     0
  1
*
  1
*
  0
XRECORD
  5
12CF
102
{ACAD_REACTORS
330
1172
102
}
330
1172
100
AcDbXrecord
280
     1
  1
rouge
  1
*
  1
1
  1
*
 70
     1
  1
*
  1
*
  0
XRECORD
  5
12D0
102
{ACAD_REACTORS
330
1172
102
}
330
1172
100
AcDbXrecord
280
     1
  1
rtkl
  1
*rtkl*
  1
*
  1
*
 70
     0
  1
*
  1
*
  0
XRECORD
  5
12D1
102
{ACAD_REACTORS
330
1172
102
}
330
1172
100
AcDbXrecord
280
     1
  1
S
  1
0,05*,11*,12*,13*,14*,20*,21*,22*,55*,56*,
  1
*
  1
*
 70
     0
  1
*
  1
*
  0
XRECORD
  5
12D2
102
{ACAD_REACTORS
330
1172
102
}
330
1172
100
AcDbXrecord
280
     1
  1
saciencewold
  1
*
  1
*
  1
*
 70
     0
  1
*
  1
*
  0
XRECORD
  5
12D3
102
{ACAD_REACTORS
330
1172
102
}
330
1172
100
AcDbXrecord
280
     1
  1
SETUBI
  1
*SETUBI
  1
*
  1
*
 70
     0
  1
*
  1
*
  0
XRECORD
  5
12D4
102
{ACAD_REACTORS
330
1172
102
}
330
1172
100
AcDbXrecord
280
     1
  1
SHITU
  1
*SHITUMEI*
  1
*
  1
*
 70
     0
  1
*
  1
*
  0
XRECORD
  5
12D5
102
{ACAD_REACTORS
330
1172
102
}
330
1172
100
AcDbXrecord
280
     1
  1
SHITUMEI
  1
*SHITUMEI2
  1
*
  1
*
 70
     0
  1
*
  1
*
  0
XRECORD
  5
12D6
102
{ACAD_REACTORS
330
1172
102
}
330
1172
100
AcDbXrecord
280
     1
  1
SIAG
  1
*3SIAG
  1
*
  1
*
 70
     0
  1
*
  1
*
  0
XRECORD
  5
12D7
102
{ACAD_REACTORS
330
1172
102
}
330
1172
100
AcDbXrecord
280
     1
  1
SIAG-N
  1
*3SIAG-N
  1
7
  1
*
 70
     0
  1
*
  1
*
  0
XRECORD
  5
12D8
102
{ACAD_REACTORS
330
1172
102
}
330
1172
100
AcDbXrecord
280
     1
  1
SIAG3
  1
*3SIAG3
  1
3
  1
*
 70
     0
  1
*
  1
*
  0
XRECORD
  5
12D9
102
{ACAD_REACTORS
330
1172
102
}
330
1172
100
AcDbXrecord
280
     1
  1
sin
  1
*SIN*
  1
*
  1
*
 70
     0
  1
*
  1
*
  0
XRECORD
  5
12DA
102
{ACAD_REACTORS
330
1172
102
}
330
1172
100
AcDbXrecord
280
     1
  1
Sinm
  1
*-Sinm*
  1
*
  1
*
 70
     0
  1
*
  1
*
  0
XRECORD
  5
12DB
102
{ACAD_REACTORS
330
1172
102
}
330
1172
100
AcDbXrecord
280
     1
  1
SITA
  1
*3SITA
  1
*
  1
*
 70
     0
  1
*
  1
*
  0
XRECORD
  5
12DC
102
{ACAD_REACTORS
330
1172
102
}
330
1172
100
AcDbXrecord
280
     1
  1
siyah
  1
*
  1
*
  1
*
 70
     4
  1
*
  1
siyah
  0
XRECORD
  5
12DD
102
{ACAD_REACTORS
330
1172
102
}
330
1172
100
AcDbXrecord
280
     1
  1
SS
  1
*SS*
  1
*
  1
*
 70
     0
  1
*
  1
*
  0
XRECORD
  5
12DE
102
{ACAD_REACTORS
330
1172
102
}
330
1172
100
AcDbXrecord
280
     1
  1
ST
  1
*ST*
  1
*
  1
*
 70
     0
  1
*
  1
*
  0
XRECORD
  5
12DF
102
{ACAD_REACTORS
330
1172
102
}
330
1172
100
AcDbXrecord
280
     1
  1
STA
  1
STA*
  1
*
  1
*
 70
     0
  1
*
  1
*
  0
XRECORD
  5
12E0
102
{ACAD_REACTORS
330
1172
102
}
330
1172
100
AcDbXrecord
280
     1
  1
stairs
  1
*sta*
  1
*
  1
*
 70
     0
  1
*
  1
*
  0
XRECORD
  5
12E1
102
{ACAD_REACTORS
330
1172
102
}
330
1172
100
AcDbXrecord
280
     1
  1
SUGA5
  1
*4SUGA5
  1
5
  1
*
 70
     0
  1
*
  1
*
  0
XRECORD
  5
12E2
102
{ACAD_REACTORS
330
1172
102
}
330
1172
100
AcDbXrecord
280
     1
  1
SUNP
  1
*5SUNP100
  1
1
  1
*
 70
     0
  1
*
  1
*
  0
XRECORD
  5
12E3
102
{ACAD_REACTORS
330
1172
102
}
330
1172
100
AcDbXrecord
280
     1
  1
SUNP100
  1
*5SUNP100
  1
*
  1
*
 70
     0
  1
*
  1
*
  0
XRECORD
  5
12E4
102
{ACAD_REACTORS
330
1172
102
}
330
1172
100
AcDbXrecord
280
     1
  1
T
  1
T*
  1
*
  1
*
 70
     0
  1
*
  1
*
  0
XRECORD
  5
12E5
102
{ACAD_REACTORS
330
1172
102
}
330
1172
100
AcDbXrecord
280
     1
  1
TAKASA
  1
*
  1
2
  1
*
 70
     0
  1
*
  1
*
  0
XRECORD
  5
12E6
102
{ACAD_REACTORS
330
1172
102
}
330
1172
100
AcDbXrecord
280
     1
  1
TATE161
  1
*4TATE161
  1
161
  1
*
 70
     0
  1
*
  1
*
  0
XRECORD
  5
12E7
102
{ACAD_REACTORS
330
1172
102
}
330
1172
100
AcDbXrecord
280
     1
  1
TATEGU
  1
*TATEGU
  1
*
  1
*
 70
     0
  1
*
  1
*
  0
XRECORD
  5
12E8
102
{ACAD_REACTORS
330
1172
102
}
330
1172
100
AcDbXrecord
280
     1
  1
ten
  1
*ten*
  1
*
  1
*
 70
     0
  1
*
  1
*
  0
XRECORD
  5
12E9
102
{ACAD_REACTORS
330
1172
102
}
330
1172
100
AcDbXrecord
280
     1
  1
TENJYOU
  1
C-*
  1
*
  1
*
 70
     0
  1
*
  1
*
  0
XRECORD
  5
12EA
102
{ACAD_REACTORS
330
1172
102
}
330
1172
100
AcDbXrecord
280
     1
  1
TENJYOUNAI
  1
CI-*
  1
*
  1
*
 70
     0
  1
*
  1
*
  0
XRECORD
  5
12EB
102
{ACAD_REACTORS
330
1172
102
}
330
1172
100
AcDbXrecord
280
     1
  1
test
  1
keyplan
  1
*
  1
*
 70
     0
  1
*
  1
*
  0
XRECORD
  5
12EC
102
{ACAD_REACTORS
330
1172
102
}
330
1172
100
AcDbXrecord
280
     1
  1
text
  1
*text*
  1
*
  1
*
 70
     0
  1
*
  1
*
  0
XRECORD
  5
12ED
102
{ACAD_REACTORS
330
1172
102
}
330
1172
100
AcDbXrecord
280
     1
  1
thaw
  1
*
  1
*
  1
*
 70
    12
  1
*
  1
*
  0
XRECORD
  5
12EE
102
{ACAD_REACTORS
330
1172
102
}
330
1172
100
AcDbXrecord
280
     1
  1
TITL
  1
*8TITL
  1
4
  1
*
 70
     0
  1
*
  1
*
  0
XRECORD
  5
12EF
102
{ACAD_REACTORS
330
1172
102
}
330
1172
100
AcDbXrecord
280
     1
  1
tnjyou
  1
c-*
  1
*
  1
*
 70
     0
  1
*
  1
*
  0
XRECORD
  5
12F0
102
{ACAD_REACTORS
330
1172
102
}
330
1172
100
AcDbXrecord
280
     1
  1
tori
  1
*A11
  1
*
  1
*
 70
     0
  1
*
  1
*
  0
XRECORD
  5
12F1
102
{ACAD_REACTORS
330
1172
102
}
330
1172
100
AcDbXrecord
280
     1
  1
TORISHIN
  1
*A11
  1
*
  1
*
 70
     0
  1
*
  1
*
  0
XRECORD
  5
12F2
102
{ACAD_REACTORS
330
1172
102
}
330
1172
100
AcDbXrecord
280
     1
  1
tr
  1
*tr*
  1
*
  1
*
 70
     0
  1
*
  1
*
  0
XRECORD
  5
12F3
102
{ACAD_REACTORS
330
1172
102
}
330
1172
100
AcDbXrecord
280
     1
  1
TSIN
  1
*2TSIN
  1
*
  1
*
 70
     0
  1
*
  1
*
  0
XRECORD
  5
12F4
102
{ACAD_REACTORS
330
1172
102
}
330
1172
100
AcDbXrecord
280
     1
  1
TXT
  1
*TX*
  1
*
  1
*
 70
     0
  1
*
  1
*
  0
XRECORD
  5
12F5
102
{ACAD_REACTORS
330
1172
102
}
330
1172
100
AcDbXrecord
280
     1
  1
UNFREEZ
  1
*
  1
*
  1
*
 70
    12
  1
*
  1
*
  0
XRECORD
  5
12F6
102
{ACAD_REACTORS
330
1172
102
}
330
1172
100
AcDbXrecord
280
     1
  1
UNROCK
  1
*
  1
*
  1
*
 70
   768
  1
*
  1
*
  0
XRECORD
  5
12F7
102
{ACAD_REACTORS
330
1172
102
}
330
1172
100
AcDbXrecord
280
     1
  1
wada
  1
*
  1
*
  1
*
 70
     0
  1
*
  1
*
  0
XRECORD
  5
12F8
102
{ACAD_REACTORS
330
1172
102
}
330
1172
100
AcDbXrecord
280
     1
  1
waku
  1
waku
  1
*
  1
*
 70
     0
  1
*
  1
*
  0
XRECORD
  5
12F9
102
{ACAD_REACTORS
330
1172
102
}
330
1172
100
AcDbXrecord
280
     1
  1
X
  1
*$*$*
  1
*
  1
*
 70
     0
  1
*
  1
*
  0
XRECORD
  5
12FA
102
{ACAD_REACTORS
330
1172
102
}
330
1172
100
AcDbXrecord
280
     1
  1
X(敷地)を表示
  1
X*
  1
*
  1
*
 70
     0
  1
*
  1
*
  0
XRECORD
  5
12FB
102
{ACAD_REACTORS
330
1172
102
}
330
1172
100
AcDbXrecord
280
     1
  1
xref
  1
ground*
  1
*
  1
*
 70
     0
  1
*
  1
*
  0
XRECORD
  5
12FC
102
{ACAD_REACTORS
330
1172
102
}
330
1172
100
AcDbXrecord
280
     1
  1
YAJI
  1
*YAJI*
  1
*
  1
*
 70
     0
  1
*
  1
*
  0
XRECORD
  5
12FD
102
{ACAD_REACTORS
330
1172
102
}
330
1172
100
AcDbXrecord
280
     1
  1
yellow
  1
*
  1
yellow
  1
*
 70
     0
  1
*
  1
*
  0
XRECORD
  5
12FE
102
{ACAD_REACTORS
330
1172
102
}
330
1172
100
AcDbXrecord
280
     1
  1
YUKA
  1
F-*
  1
*
  1
*
 70
     0
  1
*
  1
*
  0
XRECORD
  5
12FF
102
{ACAD_REACTORS
330
1172
102
}
330
1172
100
AcDbXrecord
280
     1
  1
yその他
  1
y*
  1
*
  1
*
 70
     0
  1
*
  1
*
  0
XRECORD
  5
1300
102
{ACAD_REACTORS
330
1172
102
}
330
1172
100
AcDbXrecord
280
     1
  1
Z
  1
Z*
  1
*
  1
*
 70
     0
  1
*
  1
*
  0
XRECORD
  5
1301
102
{ACAD_REACTORS
330
1172
102
}
330
1172
100
AcDbXrecord
280
     1
  1
ZATU
  1
*ZATU
  1
*
  1
*
 70
     0
  1
*
  1
*
  0
XRECORD
  5
1302
102
{ACAD_REACTORS
330
1172
102
}
330
1172
100
AcDbXrecord
280
     1
  1
z図枠
  1
z*
  1
*
  1
*
 70
     0
  1
*
  1
*
  0
XRECORD
  5
1303
102
{ACAD_REACTORS
330
1172
102
}
330
1172
100
AcDbXrecord
280
     1
  1
к
  1
к-*
  1
*
  1
*
 70
     0
  1
*
  1
*
  0
XRECORD
  5
1304
102
{ACAD_REACTORS
330
1172
102
}
330
1172
100
AcDbXrecord
280
     1
  1
перегородки
  1
*перегород*
  1
*
  1
*
 70
     0
  1
*
  1
*
  0
XRECORD
  5
1305
102
{ACAD_REACTORS
330
1172
102
}
330
1172
100
AcDbXrecord
280
     1
  1
イベント給水
  1
*い*
  1
*
  1
*
 70
     0
  1
*
  1
*
  0
XRECORD
  5
1306
102
{ACAD_REACTORS
330
1172
102
}
330
1172
100
AcDbXrecord
280
     1
  1
ガラス
  1
*HMOJI
  1
*
  1
*
 70
     0
  1
*
  1
*
  0
XRECORD
  5
1307
102
{ACAD_REACTORS
330
1172
102
}
330
1172
100
AcDbXrecord
280
     1
  1
キ-プラン
  1
*HMOJI,*HOJO2,*HOJO4,*SINSEI
  1
*
  1
*
 70
     0
  1
*
  1
*
  0
XRECORD
  5
1308
102
{ACAD_REACTORS
330
1172
102
}
330
1172
100
AcDbXrecord
280
     1
  1
キープラン
  1
キープラン*
  1
*
  1
*
 70
     0
  1
*
  1
*
  0
XRECORD
  5
1309
102
{ACAD_REACTORS
330
1172
102
}
330
1172
100
AcDbXrecord
280
     1
  1
さーくる
  1
*
  1
*
  1
*
 70
     0
  1
*
  1
*
  0
XRECORD
  5
130A
102
{ACAD_REACTORS
330
1172
102
}
330
1172
100
AcDbXrecord
280
     1
  1
シェルター
  1
シェルター*
  1
*
  1
*
 70
     0
  1
*
  1
*
  0
XRECORD
  5
130B
102
{ACAD_REACTORS
330
1172
102
}
330
1172
100
AcDbXrecord
280
     1
  1
すべてに反映
  1
*す*
  1
*
  1
*
 70
     0
  1
*
  1
*
  0
XRECORD
  5
130C
102
{ACAD_REACTORS
330
1172
102
}
330
1172
100
AcDbXrecord
280
     1
  1
スロープ
  1
SL*
  1
*
  1
*
 70
     0
  1
*
  1
*
  0
XRECORD
  5
130D
102
{ACAD_REACTORS
330
1172
102
}
330
1172
100
AcDbXrecord
280
     1
  1
タイル割付平面図
  1
タイル*
  1
*
  1
*
 70
     0
  1
*
  1
*
  0
XRECORD
  5
130E
102
{ACAD_REACTORS
330
1172
102
}
330
1172
100
AcDbXrecord
280
     1
  1
ﾃｷｽﾄのみ表示
  1
*NZ5-TEXT
  1
*
  1
*
 70
     0
  1
*
  1
*
  0
XRECORD
  5
130F
102
{ACAD_REACTORS
330
1172
102
}
330
1172
100
AcDbXrecord
280
     1
  1
ハッチング
  1
*ハッチング
  1
*
  1
*
 70
     0
  1
*
  1
*
  0
XRECORD
  5
1310
102
{ACAD_REACTORS
330
1172
102
}
330
1172
100
AcDbXrecord
280
     1
  1
フリーズ
  1
*
  1
*
  1
*
 70
     4
  1
*
  1
*
  0
XRECORD
  5
1311
102
{ACAD_REACTORS
330
1172
102
}
330
1172
100
AcDbXrecord
280
     1
  1
フリーズof
  1
*
  1
*
  1
*
 70
    12
  1
*
  1
*
  0
XRECORD
  5
1312
102
{ACAD_REACTORS
330
1172
102
}
330
1172
100
AcDbXrecord
280
     1
  1
ﾌﾘｰｽﾞ画層非表示
  1
*
  1
*
  1
*
 70
    12
  1
*
  1
*
  0
XRECORD
  5
1313
102
{ACAD_REACTORS
330
1172
102
}
330
1172
100
AcDbXrecord
280
     1
  1
ﾌﾘｰｽﾞ画面非表示
  1
*
  1
*
  1
*
 70
    12
  1
*
  1
*
  0
XRECORD
  5
1314
102
{ACAD_REACTORS
330
1172
102
}
330
1172
100
AcDbXrecord
280
     1
  1
ﾌﾘｰｽﾞ解除
  1
*
  1
*
  1
*
 70
    12
  1
*
  1
*
  0
XRECORD
  5
1315
102
{ACAD_REACTORS
330
1172
102
}
330
1172
100
AcDbXrecord
280
     1
  1
フリーズ解除
  1
*
  1
*
  1
*
 70
    12
  1
*
  1
*
  0
XRECORD
  5
1316
102
{ACAD_REACTORS
330
1172
102
}
330
1172
100
AcDbXrecord
280
     1
  1
ﾌﾟﾚｾﾞﾝ枠
  1
*|ﾌﾟﾚｾﾞﾝ枠
  1
*
  1
*
 70
     0
  1
*
  1
*
  0
XRECORD
  5
1317
102
{ACAD_REACTORS
330
1172
102
}
330
1172
100
AcDbXrecord
280
     1
  1
マーク
  1
*マーク
  1
*
  1
*
 70
     0
  1
*
  1
*
  0
XRECORD
  5
1318
102
{ACAD_REACTORS
330
1172
102
}
330
1172
100
AcDbXrecord
280
     1
  1
ﾒｲﾝﾌﾟﾗｻﾞ
  1
*め*
  1
*
  1
*
 70
     0
  1
*
  1
*
  0
XRECORD
  5
1319
102
{ACAD_REACTORS
330
1172
102
}
330
1172
100
AcDbXrecord
280
     1
  1
レベル
  1
*た*
  1
*
  1
*
 70
     0
  1
*
  1
*
  0
XRECORD
  5
131A
102
{ACAD_REACTORS
330
1172
102
}
330
1172
100
AcDbXrecord
280
     1
  1
ロック
  1
*
  1
*
  1
*
 70
   256
  1
*
  1
*
  0
XRECORD
  5
131B
102
{ACAD_REACTORS
330
1172
102
}
330
1172
100
AcDbXrecord
280
     1
  1
一括非表示
  1
*
  1
*
  1
*
 70
     3
  1
*
  1
*
  0
XRECORD
  5
131C
102
{ACAD_REACTORS
330
1172
102
}
330
1172
100
AcDbXrecord
280
     1
  1
一般図
  1
hatch
  1
*
  1
*
 70
     7
  1
*
  1
*
  0
XRECORD
  5
131D
102
{ACAD_REACTORS
330
1172
102
}
330
1172
100
AcDbXrecord
280
     1
  1
印刷
  1
*
  1
*
  1
*
 70
    13
  1
*
  1
*
  0
XRECORD
  5
131E
102
{ACAD_REACTORS
330
1172
102
}
330
1172
100
AcDbXrecord
280
     1
  1
荏原機器
  1
KIKI*
  1
*
  1
*
 70
     0
  1
*
  1
*
  0
XRECORD
  5
131F
102
{ACAD_REACTORS
330
1172
102
}
330
1172
100
AcDbXrecord
280
     1
  1
荏原機器基礎
  1
a3*,KIKI*,text*,stage,矢視記号
  1
*
  1
*
 70
     0
  1
*
  1
*
  0
XRECORD
  5
1320
102
{ACAD_REACTORS
330
1172
102
}
330
1172
100
AcDbXrecord
280
     1
  1
衛生設備図
  1
001*,002*,004*,005*,007*,010*,039*,040*,041*,042*,043*
  1
*
  1
*
 70
     0
  1
*
  1
*
  0
XRECORD
  5
1321
102
{ACAD_REACTORS
330
1172
102
}
330
1172
100
AcDbXrecord
280
     1
  1
黄色
  1
*
  1
YELLOW
  1
*
 70
     0
  1
*
  1
*
  0
XRECORD
  5
1322
102
{ACAD_REACTORS
330
1172
102
}
330
1172
100
AcDbXrecord
280
     1
  1
下階
  1
下階*
  1
*
  1
*
 70
     0
  1
*
  1
*
  0
XRECORD
  5
1323
102
{ACAD_REACTORS
330
1172
102
}
330
1172
100
AcDbXrecord
280
     1
  1
下地
  1
*-下
  1
*
  1
*
 70
     0
  1
*
  1
*
  0
XRECORD
  5
1324
102
{ACAD_REACTORS
330
1172
102
}
330
1172
100
AcDbXrecord
280
     1
  1
外構
  1
外構*
  1
*
  1
*
 70
     0
  1
*
  1
*
  0
XRECORD
  5
1325
102
{ACAD_REACTORS
330
1172
102
}
330
1172
100
AcDbXrecord
280
     1
  1
外部参照－建築
  1
A*
  1
9
  1
*
 70
     0
  1
*
  1
*
  0
XRECORD
  5
1326
102
{ACAD_REACTORS
330
1172
102
}
330
1172
100
AcDbXrecord
280
     1
  1
外部参照除く
  1
A*
  1
*
  1
*
 70
     0
  1
*
  1
*
  0
XRECORD
  5
1327
102
{ACAD_REACTORS
330
1172
102
}
330
1172
100
AcDbXrecord
280
     1
  1
割り付け平面図
  1
*わ*
  1
*
  1
*
 70
     0
  1
*
  1
*
  0
XRECORD
  5
1328
102
{ACAD_REACTORS
330
1172
102
}
330
1172
100
AcDbXrecord
280
     1
  1
割付平面図
  1
*わ*
  1
*
  1
*
 70
     0
  1
*
  1
*
  0
XRECORD
  5
1329
102
{ACAD_REACTORS
330
1172
102
}
330
1172
100
AcDbXrecord
280
     1
  1
潅水平面
  1
*か*
  1
*
  1
*
 70
     0
  1
*
  1
*
  0
XRECORD
  5
132A
102
{ACAD_REACTORS
330
1172
102
}
330
1172
100
AcDbXrecord
280
     1
  1
基
  1
*_基
  1
*
  1
*
 70
     0
  1
*
  1
*
  0
XRECORD
  5
132B
102
{ACAD_REACTORS
330
1172
102
}
330
1172
100
AcDbXrecord
280
     1
  1
基準
  1
基*
  1
*
  1
*
 70
     0
  1
*
  1
*
  0
XRECORD
  5
132C
102
{ACAD_REACTORS
330
1172
102
}
330
1172
100
AcDbXrecord
280
     1
  1
基準階
  1
*基準*
  1
*
  1
*
 70
     0
  1
*
  1
*
  0
XRECORD
  5
132D
102
{ACAD_REACTORS
330
1172
102
}
330
1172
100
AcDbXrecord
280
     1
  1
基礎OFF
  1
+*
  1
*
  1
*
 70
     0
  1
*
  1
*
  0
XRECORD
  5
132E
102
{ACAD_REACTORS
330
1172
102
}
330
1172
100
AcDbXrecord
280
     1
  1
基礎伏
  1
*
  1
*
  1
*
 70
     0
  1
*
  1
*
  0
XRECORD
  5
132F
102
{ACAD_REACTORS
330
1172
102
}
330
1172
100
AcDbXrecord
280
     1
  1
基礎伏図
  1
SIZE,HOJO,ZATU,HATCH,GL-HARI,GL-HASIRA,KISO,KUI,MOJI-K1,GL-FUGO,SUNPO-K1,SUNPO,SUNPO2,SUNPO1,KIJUN3,KIJUN,SIZE
  1
*
  1
*
 70
     0
  1
*
  1
*
  0
XRECORD
  5
1330
102
{ACAD_REACTORS
330
1172
102
}
330
1172
100
AcDbXrecord
280
     1
  1
基盤改良平面図
  1
*き*
  1
*
  1
*
 70
     0
  1
*
  1
*
  0
XRECORD
  5
1331
102
{ACAD_REACTORS
330
1172
102
}
330
1172
100
AcDbXrecord
280
     1
  1
既存杭
  1
既存杭*
  1
*
  1
*
 70
     0
  1
*
  1
*
  0
XRECORD
  5
1332
102
{ACAD_REACTORS
330
1172
102
}
330
1172
100
AcDbXrecord
280
     1
  1
機器
  1
KIKI*
  1
*
  1
*
 70
     0
  1
*
  1
*
  0
XRECORD
  5
1333
102
{ACAD_REACTORS
330
1172
102
}
330
1172
100
AcDbXrecord
280
     1
  1
機器基礎
  1
a3*,KIKI*,text*,stage,矢視記号
  1
*
  1
*
 70
     0
  1
*
  1
*
  0
XRECORD
  5
1334
102
{ACAD_REACTORS
330
1172
102
}
330
1172
100
AcDbXrecord
280
     1
  1
記号
  1
*記号
  1
*
  1
*
 70
     0
  1
*
  1
*
  0
XRECORD
  5
1335
102
{ACAD_REACTORS
330
1172
102
}
330
1172
100
AcDbXrecord
280
     1
  1
給水設備平面図
  1
*み*
  1
*
  1
*
 70
     0
  1
*
  1
*
  0
XRECORD
  5
1336
102
{ACAD_REACTORS
330
1172
102
}
330
1172
100
AcDbXrecord
280
     1
  1
給水平面
  1
*き*
  1
*
  1
*
 70
     0
  1
*
  1
*
  0
XRECORD
  5
1337
102
{ACAD_REACTORS
330
1172
102
}
330
1172
100
AcDbXrecord
280
     1
  1
区画
  1
区画*
  1
*
  1
*
 70
     0
  1
*
  1
*
  0
XRECORD
  5
1338
102
{ACAD_REACTORS
330
1172
102
}
330
1172
100
AcDbXrecord
280
     1
  1
躯体
  1
*A21*
  1
*
  1
*
 70
     0
  1
*
  1
*
  0
XRECORD
  5
1339
102
{ACAD_REACTORS
330
1172
102
}
330
1172
100
AcDbXrecord
280
     1
  1
躯体図
  1
D*
  1
*
  1
*
 70
     0
  1
*
  1
*
  0
XRECORD
  5
133A
102
{ACAD_REACTORS
330
1172
102
}
330
1172
100
AcDbXrecord
280
     1
  1
空調jv
  1
00i*
  1
*
  1
*
 70
     0
  1
*
  1
*
  0
XRECORD
  5
133B
102
{ACAD_REACTORS
330
1172
102
}
330
1172
100
AcDbXrecord
280
     1
  1
空調設備図
  1
001*,002*,004*,005*,007*,010*,033*,034*,035*,036*,037*,038*
  1
*
  1
*
 70
     0
  1
*
  1
*
  0
XRECORD
  5
133C
102
{ACAD_REACTORS
330
1172
102
}
330
1172
100
AcDbXrecord
280
     1
  1
郡川
  1
kijun,kabe,sunpo
  1
*
  1
*
 70
     3
  1
*
  1
*
  0
XRECORD
  5
133D
102
{ACAD_REACTORS
330
1172
102
}
330
1172
100
AcDbXrecord
280
     1
  1
型枠計画図
  1
001*,002*,003*,004*,005*,006*,007*,010*,012*,050*,051*,055*,056*,057*,058*,059*,060*,061*,062*,063*,064*,065*,066*,067*,068*,069*,070*,071*,072*,073*,074*,075*
  1
*
  1
*
 70
     0
  1
*
  1
*
  0
XRECORD
  5
133E
102
{ACAD_REACTORS
330
1172
102
}
330
1172
100
AcDbXrecord
280
     1
  1
計画高平面図
  1
*く*
  1
*
  1
*
 70
     0
  1
*
  1
*
  0
XRECORD
  5
133F
102
{ACAD_REACTORS
330
1172
102
}
330
1172
100
AcDbXrecord
280
     1
  1
計画平面
  1
*け*
  1
*
  1
*
 70
     0
  1
*
  1
*
  0
XRECORD
  5
1340
102
{ACAD_REACTORS
330
1172
102
}
330
1172
100
AcDbXrecord
280
     1
  1
計画平面図
  1
*け*
  1
*
  1
*
 70
     0
  1
*
  1
*
  0
XRECORD
  5
1341
102
{ACAD_REACTORS
330
1172
102
}
330
1172
100
AcDbXrecord
280
     1
  1
劇場ﾌﾟﾗｻﾞ
  1
*え*
  1
*
  1
*
 70
     0
  1
*
  1
*
  0
XRECORD
  5
1342
102
{ACAD_REACTORS
330
1172
102
}
330
1172
100
AcDbXrecord
280
     1
  1
劇場棟
  1
*げ*
  1
*
  1
*
 70
     0
  1
*
  1
*
  0
XRECORD
  5
1343
102
{ACAD_REACTORS
330
1172
102
}
330
1172
100
AcDbXrecord
280
     1
  1
建具
  1
*-建
  1
*
  1
*
 70
     0
  1
*
  1
*
  0
XRECORD
  5
1344
102
{ACAD_REACTORS
330
1172
102
}
330
1172
100
AcDbXrecord
280
     1
  1
建築接地図
  1
A01*
  1
*
  1
*
 70
     0
  1
*
  1
*
  0
XRECORD
  5
1345
102
{ACAD_REACTORS
330
1172
102
}
330
1172
100
AcDbXrecord
280
     1
  1
見上げ
  1
*U
  1
*
  1
*
 70
     0
  1
*
  1
*
  0
XRECORD
  5
1346
102
{ACAD_REACTORS
330
1172
102
}
330
1172
100
AcDbXrecord
280
     1
  1
現在非表示画層
  1
*
  1
*
  1
*
 70
     3
  1
*
  1
*
  0
XRECORD
  5
1347
102
{ACAD_REACTORS
330
1172
102
}
330
1172
100
AcDbXrecord
280
     1
  1
光天井
  1
*-光
  1
*
  1
*
 70
     0
  1
*
  1
*
  0
XRECORD
  5
1348
102
{ACAD_REACTORS
330
1172
102
}
330
1172
100
AcDbXrecord
280
     1
  1
公園
  1
K*
  1
*
  1
*
 70
     0
  1
*
  1
*
  0
XRECORD
  5
1349
102
{ACAD_REACTORS
330
1172
102
}
330
1172
100
AcDbXrecord
280
     1
  1
工事区分図
  1
*じ*
  1
*
  1
*
 70
     0
  1
*
  1
*
  0
XRECORD
  5
134A
102
{ACAD_REACTORS
330
1172
102
}
330
1172
100
AcDbXrecord
280
     1
  1
工事区分図AB
  1
*α*
  1
*
  1
*
 70
     0
  1
*
  1
*
  0
XRECORD
  5
134B
102
{ACAD_REACTORS
330
1172
102
}
330
1172
100
AcDbXrecord
280
     1
  1
工事区分図CD
  1
*β*
  1
*
  1
*
 70
     0
  1
*
  1
*
  0
XRECORD
  5
134C
102
{ACAD_REACTORS
330
1172
102
}
330
1172
100
AcDbXrecord
280
     1
  1
高さ
  1
204-TEXT,東西道路*
  1
*
  1
*
 70
     0
  1
*
  1
*
  0
XRECORD
  5
134D
102
{ACAD_REACTORS
330
1172
102
}
330
1172
100
AcDbXrecord
280
     1
  1
高木植栽平面
  1
*こ*
  1
*
  1
*
 70
     0
  1
*
  1
*
  0
XRECORD
  5
134E
102
{ACAD_REACTORS
330
1172
102
}
330
1172
100
AcDbXrecord
280
     1
  1
高木平面図
  1
*こ*
  1
*
  1
*
 70
     0
  1
*
  1
*
  0
XRECORD
  5
134F
102
{ACAD_REACTORS
330
1172
102
}
330
1172
100
AcDbXrecord
280
     1
  1
座席のみ
  1
*
  1
*
  1
*
 70
     0
  1
*
  1
*
  0
XRECORD
  5
1350
102
{ACAD_REACTORS
330
1172
102
}
330
1172
100
AcDbXrecord
280
     1
  1
作業
  1
100-*,地区*,
  1
*
  1
*
 70
     1
  1
*
  1
*
  0
XRECORD
  5
1351
102
{ACAD_REACTORS
330
1172
102
}
330
1172
100
AcDbXrecord
280
     1
  1
参考
  1
六*
  1
*
  1
*
 70
     0
  1
*
  1
*
  0
XRECORD
  5
1352
102
{ACAD_REACTORS
330
1172
102
}
330
1172
100
AcDbXrecord
280
     1
  1
山止根切計画図
  1
001*,002*,003*,004*,005*,007*,012*,049*,050*,051*,052*,053*,054*,055*,056*,057*,058*,059*,060*,061*,062*,064*,065*,066*,067*,068*,069*,070*,071*,072*,073*,074*,075*
  1
*
  1
*
 70
     0
  1
*
  1
*
  0
XRECORD
  5
1353
102
{ACAD_REACTORS
330
1172
102
}
330
1172
100
AcDbXrecord
280
     1
  1
仕
  1
*_仕
  1
*
  1
*
 70
     0
  1
*
  1
*
  0
XRECORD
  5
1354
102
{ACAD_REACTORS
330
1172
102
}
330
1172
100
AcDbXrecord
280
     1
  1
仕上
  1
*-2
  1
*
  1
*
 70
     0
  1
*
  1
*
  0
XRECORD
  5
1355
102
{ACAD_REACTORS
330
1172
102
}
330
1172
100
AcDbXrecord
280
     1
  1
仕上図
  1
C*
  1
*
  1
*
 70
     0
  1
*
  1
*
  0
XRECORD
  5
1356
102
{ACAD_REACTORS
330
1172
102
}
330
1172
100
AcDbXrecord
280
     1
  1
使用中
  1
使用中
  1
*
  1
*
 70
     1
  1
*
  1
*
  0
XRECORD
  5
1357
102
{ACAD_REACTORS
330
1172
102
}
330
1172
100
AcDbXrecord
280
     1
  1
施設配置図
  1
*し*
  1
*
  1
*
 70
     0
  1
*
  1
*
  0
XRECORD
  5
1358
102
{ACAD_REACTORS
330
1172
102
}
330
1172
100
AcDbXrecord
280
     1
  1
施設平面
  1
*し*
  1
*
  1
*
 70
     0
  1
*
  1
*
  0
XRECORD
  5
1359
102
{ACAD_REACTORS
330
1172
102
}
330
1172
100
AcDbXrecord
280
     1
  1
施設平面図
  1
*し*
  1
*
  1
*
 70
     0
  1
*
  1
*
  0
XRECORD
  5
135A
102
{ACAD_REACTORS
330
1172
102
}
330
1172
100
AcDbXrecord
280
     1
  1
紫
  1
*
  1
Magenta
  1
*
 70
     0
  1
*
  1
*
  0
XRECORD
  5
135B
102
{ACAD_REACTORS
330
1172
102
}
330
1172
100
AcDbXrecord
280
     1
  1
床伏図
  1
*U*,20,Z20,Z22,Z23
  1
*
  1
*
 70
     0
  1
*
  1
*
  0
XRECORD
  5
135C
102
{ACAD_REACTORS
330
1172
102
}
330
1172
100
AcDbXrecord
280
     1
  1
昇降機
  1
T*
  1
*
  1
*
 70
     0
  1
*
  1
*
  0
XRECORD
  5
135D
102
{ACAD_REACTORS
330
1172
102
}
330
1172
100
AcDbXrecord
280
     1
  1
照明
  1
*ら*,*れ*
  1
*
  1
*
 70
     0
  1
*
  1
*
  0
XRECORD
  5
135E
102
{ACAD_REACTORS
330
1172
102
}
330
1172
100
AcDbXrecord
280
     1
  1
照明Ｃ１
  1
*ら*
  1
*
  1
*
 70
     0
  1
*
  1
*
  0
XRECORD
  5
135F
102
{ACAD_REACTORS
330
1172
102
}
330
1172
100
AcDbXrecord
280
     1
  1
照明Ｃ２
  1
*れ*
  1
*
  1
*
 70
     0
  1
*
  1
*
  0
XRECORD
  5
1360
102
{ACAD_REACTORS
330
1172
102
}
330
1172
100
AcDbXrecord
280
     1
  1
照明配置図
  1
*め*
  1
*
  1
*
 70
     0
  1
*
  1
*
  0
XRECORD
  5
1361
102
{ACAD_REACTORS
330
1172
102
}
330
1172
100
AcDbXrecord
280
     1
  1
詳細
  1
詳細*
  1
*
  1
*
 70
     0
  1
*
  1
*
  0
XRECORD
  5
1362
102
{ACAD_REACTORS
330
1172
102
}
330
1172
100
AcDbXrecord
280
     1
  1
詳細図
  1
*u*,*w*,*y*,*x*,*s*,*V*,06
  1
*
  1
*
 70
     0
  1
*
  1
*
  0
XRECORD
  5
1363
102
{ACAD_REACTORS
330
1172
102
}
330
1172
100
AcDbXrecord
280
     1
  1
上階躯体図
  1
KUTAI-Z,SIZE,HOJO,ZATU,HATCH,BR-S,KABE2,KABE,MAJIKIRI,KOBARI-S,KOBARI-R,HARI-S,HARI-R,HASIRA-S,HASIRA-R,MOJI-K2,FL-FUGO,FUGO-W,SUNPO-K2,SUNPO,SUNPO2,SUNPO1,KIJUN2,KIJUN1,KIJUN,
  1
*
  1
*
 70
     0
  1
*
  1
*
  0
XRECORD
  5
1364
102
{ACAD_REACTORS
330
1172
102
}
330
1172
100
AcDbXrecord
280
     1
  1
植栽
  1
*木*
  1
*
  1
*
 70
     0
  1
*
  1
*
  0
XRECORD
  5
1365
102
{ACAD_REACTORS
330
1172
102
}
330
1172
100
AcDbXrecord
280
     1
  1
植栽基盤平面
  1
*ど*
  1
*
  1
*
 70
     0
  1
*
  1
*
  0
XRECORD
  5
1366
102
{ACAD_REACTORS
330
1172
102
}
330
1172
100
AcDbXrecord
280
     1
  1
植栽現況
  1
*植*
  1
*
  1
*
 70
     0
  1
*
  1
*
  0
XRECORD
  5
1367
102
{ACAD_REACTORS
330
1172
102
}
330
1172
100
AcDbXrecord
280
     1
  1
植栽高木AB
  1
*λ*
  1
*
  1
*
 70
     0
  1
*
  1
*
  0
XRECORD
  5
1368
102
{ACAD_REACTORS
330
1172
102
}
330
1172
100
AcDbXrecord
280
     1
  1
植栽高木CD
  1
*ｑ*
  1
*
  1
*
 70
     0
  1
*
  1
*
  0
XRECORD
  5
1369
102
{ACAD_REACTORS
330
1172
102
}
330
1172
100
AcDbXrecord
280
     1
  1
植栽低木AB
  1
*γ*
  1
*
  1
*
 70
     0
  1
*
  1
*
  0
XRECORD
  5
136A
102
{ACAD_REACTORS
330
1172
102
}
330
1172
100
AcDbXrecord
280
     1
  1
植栽低木ＣＤ
  1
*Θ*
  1
*
  1
*
 70
     0
  1
*
  1
*
  0
XRECORD
  5
136B
102
{ACAD_REACTORS
330
1172
102
}
330
1172
100
AcDbXrecord
280
     1
  1
色番号8
  1
*
  1
8
  1
*
 70
     0
  1
*
  1
*
  0
XRECORD
  5
136C
102
{ACAD_REACTORS
330
1172
102
}
330
1172
100
AcDbXrecord
280
     1
  1
申請用
  1
*あ*,*き*,*グ*,*み*,*オ*,*ピ*,*92*
  1
*
  1
*
 70
     0
  1
*
  1
*
  0
XRECORD
  5
136D
102
{ACAD_REACTORS
330
1172
102
}
330
1172
100
AcDbXrecord
280
     1
  1
芯
  1
*芯
  1
*
  1
*
 70
     0
  1
*
  1
*
  0
XRECORD
  5
136E
102
{ACAD_REACTORS
330
1172
102
}
330
1172
100
AcDbXrecord
280
     1
  1
芯関係
  1
001*,002*,032*
  1
*
  1
*
 70
     0
  1
*
  1
*
  0
XRECORD
  5
136F
102
{ACAD_REACTORS
330
1172
102
}
330
1172
100
AcDbXrecord
280
     1
  1
水
  1
*
  1
cyan
  1
*
 70
     0
  1
*
  1
*
  0
XRECORD
  5
1370
102
{ACAD_REACTORS
330
1172
102
}
330
1172
100
AcDbXrecord
280
     1
  1
水色
  1
*
  1
Cyan
  1
*
 70
     0
  1
*
  1
*
  0
XRECORD
  5
1371
102
{ACAD_REACTORS
330
1172
102
}
330
1172
100
AcDbXrecord
280
     1
  1
寸法
  1
*寸法
  1
*
  1
*
 70
     0
  1
*
  1
*
  0
XRECORD
  5
1372
102
{ACAD_REACTORS
330
1172
102
}
330
1172
100
AcDbXrecord
280
     1
  1
製作
  1
B*
  1
*
  1
*
 70
     0
  1
*
  1
*
  0
XRECORD
  5
1373
102
{ACAD_REACTORS
330
1172
102
}
330
1172
100
AcDbXrecord
280
     1
  1
製作-躯体
  1
BS*
  1
*
  1
*
 70
     0
  1
*
  1
*
  0
XRECORD
  5
1374
102
{ACAD_REACTORS
330
1172
102
}
330
1172
100
AcDbXrecord
280
     1
  1
製作-建築
  1
BD*
  1
*
  1
*
 70
     0
  1
*
  1
*
  0
XRECORD
  5
1375
102
{ACAD_REACTORS
330
1172
102
}
330
1172
100
AcDbXrecord
280
     1
  1
製作-昇降機
  1
BT*
  1
*
  1
*
 70
     0
  1
*
  1
*
  0
XRECORD
  5
1376
102
{ACAD_REACTORS
330
1172
102
}
330
1172
100
AcDbXrecord
280
     1
  1
青
  1
*
  1
blue
  1
*
 70
     0
  1
*
  1
*
  0
XRECORD
  5
1377
102
{ACAD_REACTORS
330
1172
102
}
330
1172
100
AcDbXrecord
280
     1
  1
設備
  1
E*,P*,M*
  1
*
  1
*
 70
     0
  1
*
  1
*
  0
XRECORD
  5
1378
102
{ACAD_REACTORS
330
1172
102
}
330
1172
100
AcDbXrecord
280
     1
  1
設備プロット
  1
02*
  1
*
  1
*
 70
     0
  1
*
  1
*
  0
XRECORD
  5
1379
102
{ACAD_REACTORS
330
1172
102
}
330
1172
100
AcDbXrecord
280
     1
  1
全階平面図
  1
*
  1
*
  1
*
 70
     0
  1
*
  1
*
  0
XRECORD
  5
137A
102
{ACAD_REACTORS
330
1172
102
}
330
1172
100
AcDbXrecord
280
     1
  1
総合仮設図
  1
001*,002*,003*,004*,005*,007*,012*,015*,016*,017*,018*,019*,020*,021*,049*,050*,051*,052*,053*,054*,055*,056*,057*,058*,059*,060*,061*,062*,063*,064*,065*,066*,067*,068*,069*,070*,071*,072*,073*,074*,075*
  1
*
  1
*
 70
     0
  1
*
  1
*
  0
XRECORD
  5
137B
102
{ACAD_REACTORS
330
1172
102
}
330
1172
100
AcDbXrecord
280
     1
  1
総合図
  1
*z*,*u*,*w*,*y*,*x*,*V*,06
  1
*
  1
*
 70
     0
  1
*
  1
*
  0
XRECORD
  5
137C
102
{ACAD_REACTORS
330
1172
102
}
330
1172
100
AcDbXrecord
280
     1
  1
足場計画図
  1
001*,002*,003*,004*,005*,007*,012*,015*,049*,050*,051*,055*,056*,057*,058*,059*,060*,061*,062*,064*,065*,066*,067*,068*,069*,070*,071*,072*,073*,074*,075*
  1
*
  1
*
 70
     0
  1
*
  1
*
  0
XRECORD
  5
137D
102
{ACAD_REACTORS
330
1172
102
}
330
1172
100
AcDbXrecord
280
     1
  1
地下埋設
  1
*ち*
  1
*
  1
*
 70
     0
  1
*
  1
*
  0
XRECORD
  5
137E
102
{ACAD_REACTORS
330
1172
102
}
330
1172
100
AcDbXrecord
280
     1
  1
中野
  1
中野*
  1
*
  1
*
 70
     0
  1
*
  1
*
  0
XRECORD
  5
137F
102
{ACAD_REACTORS
330
1172
102
}
330
1172
100
AcDbXrecord
280
     1
  1
低木植栽平面
  1
*て*
  1
*
  1
*
 70
     0
  1
*
  1
*
  0
XRECORD
  5
1380
102
{ACAD_REACTORS
330
1172
102
}
330
1172
100
AcDbXrecord
280
     1
  1
低木平面図
  1
*て*
  1
*
  1
*
 70
     0
  1
*
  1
*
  0
XRECORD
  5
1381
102
{ACAD_REACTORS
330
1172
102
}
330
1172
100
AcDbXrecord
280
     1
  1
鉄骨
  1
*-1
  1
*
  1
*
 70
     0
  1
*
  1
*
  0
XRECORD
  5
1382
102
{ACAD_REACTORS
330
1172
102
}
330
1172
100
AcDbXrecord
280
     1
  1
鉄骨建方計画図
  1
001*,002*,003*,004*,005*,007*,012*,013*,049*,050*,051*,052*,053*,054*,055*,056*,057*,058*,059*,060*,061*,062*,063*,064*,065*,066*,067*,068*,069*,070*,071*,072*,073*,074*,075*
  1
*
  1
*
 70
     0
  1
*
  1
*
  0
XRECORD
  5
1383
102
{ACAD_REACTORS
330
1172
102
}
330
1172
100
AcDbXrecord
280
     1
  1
天井インサート図
  1
001*,002*,004*,010*,022*,023*,024*,025*,026*,027*,028*,029*,037*,042*
  1
*
  1
*
 70
     0
  1
*
  1
*
  0
XRECORD
  5
1384
102
{ACAD_REACTORS
330
1172
102
}
330
1172
100
AcDbXrecord
280
     1
  1
天井総合図
  1
001*,002*,004*,005*,007*,010*,022*,023*,024*,025*,026*,027*,028*,029*,030*,031*,033*,035*,036*,037*,039*,041*,042*,044*,046*,047*
  1
*
  1
*
 70
     0
  1
*
  1
*
  0
XRECORD
  5
1385
102
{ACAD_REACTORS
330
1172
102
}
330
1172
100
AcDbXrecord
280
     1
  1
天井伏図
  1
0,00*,01*,03*,05*,1*,2*,3*,4*,7*,9*
  1
*
  1
*
 70
     0
  1
*
  1
*
  0
XRECORD
  5
1386
102
{ACAD_REACTORS
330
1172
102
}
330
1172
100
AcDbXrecord
280
     1
  1
天伏
  1
*05
  1
*
  1
*
 70
     0
  1
*
  1
*
  0
XRECORD
  5
1387
102
{ACAD_REACTORS
330
1172
102
}
330
1172
100
AcDbXrecord
280
     1
  1
電気設備図
  1
001*,002*,004*,005*,007*,010*,030*,031*,044*,045*,046*,047*,048*
  1
*
  1
*
 70
     0
  1
*
  1
*
  0
XRECORD
  5
1388
102
{ACAD_REACTORS
330
1172
102
}
330
1172
100
AcDbXrecord
280
     1
  1
土壌改良
  1
*ど*
  1
*
  1
*
 70
     0
  1
*
  1
*
  0
XRECORD
  5
1389
102
{ACAD_REACTORS
330
1172
102
}
330
1172
100
AcDbXrecord
280
     1
  1
土木計画平面図
  1
*^ *,*B*,*0*,*排*,*法*,*ﾊ*,*b*
  1
*
  1
*
 70
     0
  1
*
  1
*
  0
XRECORD
  5
138A
102
{ACAD_REACTORS
330
1172
102
}
330
1172
100
AcDbXrecord
280
     1
  1
道路
  1
R*
  1
*
  1
*
 70
     0
  1
*
  1
*
  0
XRECORD
  5
138B
102
{ACAD_REACTORS
330
1172
102
}
330
1172
100
AcDbXrecord
280
     1
  1
道路関係図
  1
001*,002*,003*,004*,007*,012*,015*,016*,017*,018*,019*,020*,021*,049*,050*,051*,052*,053*,054*,055*,056*,057*,058*,059*,060*,061*,062*,063*,064*,065*,066*,067*,068*,069*,070*,071*,072*,073*,074*,075*
  1
*
  1
*
 70
     0
  1
*
  1
*
  0
XRECORD
  5
138C
102
{ACAD_REACTORS
330
1172
102
}
330
1172
100
AcDbXrecord
280
     1
  1
排水
  1
*は*
  1
*
  1
*
 70
     0
  1
*
  1
*
  0
XRECORD
  5
138D
102
{ACAD_REACTORS
330
1172
102
}
330
1172
100
AcDbXrecord
280
     1
  1
排水設備平面図
  1
*は*
  1
*
  1
*
 70
     0
  1
*
  1
*
  0
XRECORD
  5
138E
102
{ACAD_REACTORS
330
1172
102
}
330
1172
100
AcDbXrecord
280
     1
  1
排水平面
  1
*は*
  1
*
  1
*
 70
     0
  1
*
  1
*
  0
XRECORD
  5
138F
102
{ACAD_REACTORS
330
1172
102
}
330
1172
100
AcDbXrecord
280
     1
  1
配管
  1
PIPE*
  1
*
  1
*
 70
     0
  1
*
  1
*
  0
XRECORD
  5
1390
102
{ACAD_REACTORS
330
1172
102
}
330
1172
100
AcDbXrecord
280
     1
  1
非表示
  1
*
  1
*
  1
*
 70
     3
  1
*
  1
*
  0
XRECORD
  5
1391
102
{ACAD_REACTORS
330
1172
102
}
330
1172
100
AcDbXrecord
280
     1
  1
非表示ﾚｲﾔｰ
  1
*-z
  1
*
  1
*
 70
     0
  1
*
  1
*
  0
XRECORD
  5
1392
102
{ACAD_REACTORS
330
1172
102
}
330
1172
100
AcDbXrecord
280
     1
  1
表示
  1
*
  1
*
  1
*
 70
     1
  1
*
  1
*
  0
XRECORD
  5
1393
102
{ACAD_REACTORS
330
1172
102
}
330
1172
100
AcDbXrecord
280
     1
  1
表示・非表示
  1
*
  1
*
  1
*
 70
     1
  1
*
  1
*
  0
XRECORD
  5
1394
102
{ACAD_REACTORS
330
1172
102
}
330
1172
100
AcDbXrecord
280
     1
  1
表示2
  1
*
  1
*
  1
*
 70
   257
  1
*
  1
*
  0
XRECORD
  5
1395
102
{ACAD_REACTORS
330
1172
102
}
330
1172
100
AcDbXrecord
280
     1
  1
分割枠
  1
枠*
  1
*
  1
*
 70
     0
  1
*
  1
*
  0
XRECORD
  5
1396
102
{ACAD_REACTORS
330
1172
102
}
330
1172
100
AcDbXrecord
280
     1
  1
平面詳細図
  1
SUNPO-S,SIZE,HOJO,ZATU,HATCH,HWAKU,HMOJI,WARITUKE-T,WARITUKE-Y,WARITUKE-K,TATEGU1,TATEGU,BR-S,MAJIKIRI,KABE2,SIAGE,KABE1,KABE,KOBARI-S,KOBARI-R,HARI-S,HARI-R,HASIRA-S,HASIRA-R,MOJI,SHITUMEI,LABEL,FL-FUGO,FUGO-W,SUNPO,SUNPO2,SUNPO1,KIJUN2,KIJUN1,KIJUN
  1
*
  1
*
 70
     0
  1
*
  1
*
  0
XRECORD
  5
1397
102
{ACAD_REACTORS
330
1172
102
}
330
1172
100
AcDbXrecord
280
     1
  1
平面図
  1
*HMOJI,*HOJO2,*HOJO3,*SINSEI,*FUGOT
  1
*
  1
*
 70
     0
  1
*
  1
*
  0
XRECORD
  5
1398
102
{ACAD_REACTORS
330
1172
102
}
330
1172
100
AcDbXrecord
280
     1
  1
平面総合図
  1
001*,002*,004*,010*,013*,014*,015*,016*,017*,018*,019*,020*,021*,030*,031*,034*,040*,045*
  1
*
  1
*
 70
     0
  1
*
  1
*
  0
XRECORD
  5
1399
102
{ACAD_REACTORS
330
1172
102
}
330
1172
100
AcDbXrecord
280
     1
  1
変更分
  1
六*
  1
*
  1
*
 70
     0
  1
*
  1
*
  0
XRECORD
  5
139A
102
{ACAD_REACTORS
330
1172
102
}
330
1172
100
AcDbXrecord
280
     1
  1
舗装平面
  1
*ほ*
  1
*
  1
*
 70
     0
  1
*
  1
*
  0
XRECORD
  5
139B
102
{ACAD_REACTORS
330
1172
102
}
330
1172
100
AcDbXrecord
280
     1
  1
舗装平面C1
  1
*α*
  1
*
  1
*
 70
     0
  1
*
  1
*
  0
XRECORD
  5
139C
102
{ACAD_REACTORS
330
1172
102
}
330
1172
100
AcDbXrecord
280
     1
  1
舗装平面C2
  1
*β*
  1
*
  1
*
 70
     0
  1
*
  1
*
  0
XRECORD
  5
139D
102
{ACAD_REACTORS
330
1172
102
}
330
1172
100
AcDbXrecord
280
     1
  1
舗装平面図
  1
*ほ*
  1
*
  1
*
 70
     0
  1
*
  1
*
  0
XRECORD
  5
139E
102
{ACAD_REACTORS
330
1172
102
}
330
1172
100
AcDbXrecord
280
     1
  1
法規チェック－区画
  1
*92
  1
*
  1
*
 70
     0
  1
*
  1
*
  0
XRECORD
  5
139F
102
{ACAD_REACTORS
330
1172
102
}
330
1172
100
AcDbXrecord
280
     1
  1
法規チェック－範囲
  1
*0
  1
*
  1
*
 70
     0
  1
*
  1
*
  0
XRECORD
  5
13A0
102
{ACAD_REACTORS
330
1172
102
}
330
1172
100
AcDbXrecord
280
     1
  1
鳳文字入力
  1
*
  1
*
  1
*
 70
     0
  1
*
  1
*
  0
XRECORD
  5
13A1
102
{ACAD_REACTORS
330
1172
102
}
330
1172
100
AcDbXrecord
280
     1
  1
防災
  1
B*
  1
*
  1
*
 70
   768
  1
*
  1
*
  0
XRECORD
  5
13A2
102
{ACAD_REACTORS
330
1172
102
}
330
1172
100
AcDbXrecord
280
     1
  1
名称
  1
*名称
  1
*
  1
*
 70
     0
  1
*
  1
*
  0
XRECORD
  5
13A3
102
{ACAD_REACTORS
330
1172
102
}
330
1172
100
AcDbXrecord
280
     1
  1
面積
  1
*
  1
*
  1
*
 70
     3
  1
*
  1
*
  0
XRECORD
  5
13A4
102
{ACAD_REACTORS
330
1172
102
}
330
1172
100
AcDbXrecord
280
     1
  1
擁壁平面図
  1
*よ*
  1
*
  1
*
 70
     0
  1
*
  1
*
  0
XRECORD
  5
13A5
102
{ACAD_REACTORS
330
1172
102
}
330
1172
100
AcDbXrecord
280
     1
  1
用途色塗
  1
*1-*
  1
*
  1
*
 70
     0
  1
*
  1
*
  0
XRECORD
  5
13A6
102
{ACAD_REACTORS
330
1172
102
}
330
1172
100
AcDbXrecord
280
     1
  1
立面図
  1
*HOJO2
  1
*
  1
*
 70
     0
  1
*
  1
*
  0
XRECORD
  5
13A7
102
{ACAD_REACTORS
330
1172
102
}
330
1172
100
AcDbXrecord
280
     1
  1
梁
  1
0,08*,17*,梁*
  1
*
  1
*
 70
     0
  1
*
  1
*
  0
XRECORD
  5
13A8
102
{ACAD_REACTORS
330
1172
102
}
330
1172
100
AcDbXrecord
280
     1
  1
緑
  1
*
  1
Green
  1
*
 70
     0
  1
*
  1
*
  0
ENDSEC
  0
EOF
